<?xml version="1.0" standalone="no"?>
<!DOCTYPE svg PUBLIC "-//W3C//DTD SVG 1.1//EN" "http://www.w3.org/Graphics/SVG/1.1/DTD/svg11.dtd" >
<svg xmlns="http://www.w3.org/2000/svg">
<metadata></metadata>
<defs>
<font id="fontawesomeregular" horiz-adv-x="1755" >
<font-face units-per-em="2048" ascent="1755" descent="-293" />
<missing-glyph horiz-adv-x="512" />
<glyph unicode="&#xd;" horiz-adv-x="682" />
<glyph unicode=" "  horiz-adv-x="512" />
<glyph unicode="&#x09;" horiz-adv-x="512" />
<glyph unicode="&#xa0;" horiz-adv-x="512" />
<glyph unicode="&#xa8;" horiz-adv-x="2048" />
<glyph unicode="&#xa9;" horiz-adv-x="2048" />
<glyph unicode="&#xae;" horiz-adv-x="2048" />
<glyph unicode="&#xb4;" horiz-adv-x="2048" />
<glyph unicode="&#xc6;" horiz-adv-x="2048" />
<glyph unicode="&#x2000;" horiz-adv-x="877" />
<glyph unicode="&#x2001;" />
<glyph unicode="&#x2002;" horiz-adv-x="877" />
<glyph unicode="&#x2003;" />
<glyph unicode="&#x2004;" horiz-adv-x="585" />
<glyph unicode="&#x2005;" horiz-adv-x="438" />
<glyph unicode="&#x2006;" horiz-adv-x="292" />
<glyph unicode="&#x2007;" horiz-adv-x="292" />
<glyph unicode="&#x2008;" horiz-adv-x="219" />
<glyph unicode="&#x2009;" horiz-adv-x="350" />
<glyph unicode="&#x200a;" horiz-adv-x="97" />
<glyph unicode="&#x202f;" horiz-adv-x="350" />
<glyph unicode="&#x205f;" horiz-adv-x="438" />
<glyph unicode="&#x2122;" horiz-adv-x="2048" />
<glyph unicode="&#x221e;" horiz-adv-x="2048" />
<glyph unicode="&#x2260;" horiz-adv-x="2048" />
<glyph unicode="&#xe000;" horiz-adv-x="571" d="M0 0z" />
<glyph unicode="&#xf000;" horiz-adv-x="2048" d="M106 1543q0 26 20.5 41.5t43.5 20t49 4.5h1610q26 0 49 -4.5t43.5 -20t20.5 -41.5q0 -40 -49 -89l-723 -723v-877h366q30 0 51.5 -22t21.5 -51.5t-21.5 -51.5t-51.5 -22h-1024q-30 0 -51.5 22t-21.5 51.5t21.5 51.5t51.5 22h366v877l-723 723q-49 49 -49 89z" />
<glyph unicode="&#xf001;" d="M0 -73q0 57 39 101.5t98.5 69t118 36.5t110.5 12q120 0 219 -44v1105q0 35 22 64.5t56 40.5l951 293q14 5 32 4q46 0 77.5 -32t31.5 -78v-1280q0 -57 -38.5 -101.5t-98 -69t-118.5 -36.5t-110.5 -12t-110 12t-118 36.5t-98.5 69t-39 102t39 102t98.5 69t118 36.5 t110.5 12q120 0 219 -45v614l-878 -271v-810q0 -57 -38.5 -101.5t-98 -69.5t-118.5 -37t-110.5 -12t-110 12t-118 37t-98.5 69.5t-39 101.5z" />
<glyph unicode="&#xf002;" horiz-adv-x="1901" d="M0 804.5q0 163.5 63.5 312.5t171.5 257t257 171.5t312.5 63.5t312.5 -63.5t257 -171.5t171.5 -257t63.5 -312q0 -251 -142 -456l392 -392q43 -42 43 -103q0 -59 -43.5 -103t-103.5 -44q-62 0 -102 44l-392 391q-205 -142 -456 -142q-163 0 -312.5 63.5t-257.5 171.5 t-171.5 257t-63.5 312.5zM293 804.5q0 -211.5 150 -361.5t361.5 -150t362 150t150.5 361.5t-150.5 362t-362 150.5t-361.5 -150.5t-150 -362z" />
<glyph unicode="&#xf003;" horiz-adv-x="2048" d="M0 37v1243q0 75 53.5 129t129.5 54h1682q75 0 129 -54t54 -129v-1243q0 -75 -53.5 -129t-129.5 -54h-1682q-75 0 -129 53.5t-54 129.5zM146 37q0 -15 11 -26t26 -11h1682q15 0 26 11t11 26v877q-37 -41 -79 -75q-306 -235 -487 -386q-58 -49 -94.5 -76.5t-99 -55.5 t-117.5 -28h-1h-1q-55 0 -117.5 28t-99 55t-94.5 77q-181 151 -487 386q-42 34 -79 75v-877zM146 1280q0 -192 168 -325q221 -174 459 -362q7 -6 40 -34t52.5 -42.5t50.5 -36t57.5 -31.5t49.5 -10h1h1q23 0 49.5 10t57.5 31.5t50.5 36t53 42.5t39.5 34q238 189 459 362 q62 49 115 132.5t53 150.5v12.5v15.5t-0.5 14.5t-3.5 14t-6.5 10.5t-10.5 9t-16 3h-1682q-15 0 -26 -11t-11 -26z" />
<glyph unicode="&#xf004;" horiz-adv-x="2048" d="M0 1074q0 251 145 393t401 142q71 0 145 -24.5t137 -66t109 -78.5t87 -78q41 41 87 78t109 78.5t137 66t145 24.5q256 0 401 -141.5t145 -393.5q0 -253 -262 -514l-712 -686q-20 -20 -50 -20t-50 20l-713 688q-11 9 -31.5 30t-64 75t-77.5 111t-61 138.5t-27 157.5z" />
<glyph unicode="&#xf005;" horiz-adv-x="1901" d="M0 1016q0 42 64 53l574 83l257 520q22 47 56 47t56 -47l257 -520l574 -83q64 -11 64 -53q0 -25 -30 -55l-415 -404l98 -572q1 -8 2 -23q0 -24 -12 -40.5t-35 -16.5q-22 0 -46 14l-513 270l-513 -270q-25 -14 -46 -14q-24 0 -36 16.5t-12 40.5q0 7 2 23l99 572l-416 404 q-29 31 -29 55z" />
<glyph unicode="&#xf006;" horiz-adv-x="1901" d="M0 1016q0 42 64 53l574 83l257 520q22 47 56 47t56 -47l257 -520l574 -83q64 -11 64 -53q0 -25 -30 -55l-415 -404l98 -572q1 -8 2 -23q0 -57 -47 -57q-22 0 -46 14l-513 270l-513 -270q-25 -14 -46 -14q-24 0 -36 16.5t-12 40.5q0 7 2 23l99 572l-416 404q-29 31 -29 55 zM253 947l349 -339l-83 -481l432 227l431 -227l-83 481l350 339l-482 71l-216 437l-216 -437z" />
<glyph unicode="&#xf007;" horiz-adv-x="1609" d="M0 150q0 61 4 118.5t16 124t30.5 124t49 111.5t70.5 92.5t98 61.5t127 23q10 0 48 -25t85.5 -55t123.5 -54.5t152.5 -24.5t152.5 24.5t123.5 54.5t85 55t48.5 25q70 0 127.5 -23t97.5 -61.5t71 -92.5t49 -111.5t30 -124t16 -124t4 -118.5q0 -137 -83.5 -216.5 t-221.5 -79.5h-999q-138 0 -221.5 79.5t-83.5 216.5zM366 1170.5q0 181.5 128.5 310t310 128.5t310 -128.5t128.5 -310t-128.5 -310.5t-310 -129t-310 129t-128.5 310.5z" />
<glyph unicode="&#xf008;" horiz-adv-x="2194" d="M0 -110v1536q0 75 53.5 129t129.5 54h1828q75 0 129 -54t54 -129v-1536q0 -75 -53.5 -129t-129.5 -54h-1828q-75 0 -129 54t-54 129zM146 73v-146q0 -30 22 -51.5t51 -21.5h147q30 0 51.5 21.5t21.5 51.5v146q0 30 -22 51.5t-51 21.5h-147q-30 0 -51.5 -21.5t-21.5 -51.5 zM146 366q0 -30 22 -51.5t51 -21.5h147q30 0 51.5 21.5t21.5 51.5v146q0 30 -22 51.5t-51 21.5h-147q-30 0 -51.5 -21.5t-21.5 -51.5v-146zM146 805q0 -30 22 -52t51 -22h147q30 0 51.5 22t21.5 52v146q0 30 -22 51.5t-51 21.5h-147q-30 0 -51.5 -21.5t-21.5 -51.5v-146z M146 1243q0 -30 22 -51.5t51 -21.5h147q30 0 51.5 21.5t21.5 51.5v147q0 30 -22 51.5t-51 21.5h-147q-30 0 -51.5 -22t-21.5 -51v-147zM585 -73q0 -30 22 -51.5t51 -21.5h878q30 0 51.5 21.5t21.5 51.5v585q0 30 -21.5 51.5t-51.5 21.5h-878q-30 0 -51.5 -21.5t-21.5 -51.5 v-585zM585 805q0 -30 22 -52t51 -22h878q30 0 51.5 22t21.5 52v585q0 30 -21.5 51.5t-51.5 21.5h-878q-30 0 -51.5 -22t-21.5 -51v-585zM1755 73v-146q0 -30 22 -51.5t52 -21.5h146q30 0 51.5 21.5t21.5 51.5v146q0 30 -21.5 51.5t-51.5 21.5h-146q-30 0 -52 -21.5 t-22 -51.5zM1755 366q0 -30 22 -51.5t52 -21.5h146q30 0 51.5 21.5t21.5 51.5v146q0 30 -21.5 51.5t-51.5 21.5h-146q-30 0 -52 -21.5t-22 -51.5v-146zM1755 805q0 -30 22 -52t52 -22h146q30 0 51.5 22t21.5 52v146q0 30 -21.5 51.5t-51.5 21.5h-146q-30 0 -52 -21.5 t-22 -51.5v-146zM1755 1243q0 -30 22 -51.5t52 -21.5h146q30 0 51.5 21.5t21.5 51.5v147q0 30 -21.5 51.5t-51.5 21.5h-146q-30 0 -52 -22t-22 -51v-147z" />
<glyph unicode="&#xf009;" horiz-adv-x="1901" d="M0 146v439q0 59 43.5 102.5t102.5 43.5h585q59 0 103 -43.5t44 -102.5v-439q0 -59 -43.5 -102.5t-103.5 -43.5h-585q-59 0 -102.5 43.5t-43.5 102.5zM0 1024v439q0 59 43.5 102.5t102.5 43.5h585q59 0 103 -43.5t44 -102.5v-439q0 -59 -43.5 -102.5t-103.5 -43.5h-585 q-59 0 -102.5 43.5t-43.5 102.5zM1024 146v439q0 59 43.5 102.5t102.5 43.5h585q59 0 103 -43.5t44 -102.5v-439q0 -59 -43.5 -102.5t-103.5 -43.5h-585q-59 0 -102.5 43.5t-43.5 102.5zM1024 1024v439q0 59 43.5 102.5t102.5 43.5h585q59 0 103 -43.5t44 -102.5v-439 q0 -59 -43.5 -102.5t-103.5 -43.5h-585q-59 0 -102.5 43.5t-43.5 102.5z" />
<glyph unicode="&#xf00a;" horiz-adv-x="2048" d="M0 110v219q0 46 32 78t78 32h365q46 0 78 -32t32 -78v-219q0 -46 -32 -78t-78 -32h-365q-46 0 -78 32t-32 78zM0 695v219q0 46 32 78t78 32h365q46 0 78 -32t32 -78v-219q0 -46 -32 -78t-78 -32h-365q-46 0 -78 32t-32 78zM0 1280v219q0 46 32 78t78 32h365q46 0 78 -32 t32 -78v-219q0 -46 -32 -78t-78 -32h-365q-46 0 -78 32t-32 78zM731 110v219q0 46 32 78t78 32h366q46 0 78 -32t32 -78v-219q0 -46 -32 -78t-78 -32h-366q-46 0 -78 32t-32 78zM731 695v219q0 46 32 78t78 32h366q46 0 78 -32t32 -78v-219q0 -46 -32 -78t-78 -32h-366 q-46 0 -78 32t-32 78zM731 1280v219q0 46 32 78t78 32h366q46 0 78 -32t32 -78v-219q0 -46 -32 -78t-78 -32h-366q-46 0 -78 32t-32 78zM1463 110v219q0 46 32 78t78 32h365q46 0 78 -32t32 -78v-219q0 -46 -32 -78t-78 -32h-365q-46 0 -78 32t-32 78zM1463 695v219 q0 46 32 78t78 32h365q46 0 78 -32t32 -78v-219q0 -46 -32 -78t-78 -32h-365q-46 0 -78 32t-32 78zM1463 1280v219q0 46 32 78t78 32h365q46 0 78 -32t32 -78v-219q0 -46 -32 -78t-78 -32h-365q-46 0 -78 32t-32 78z" />
<glyph unicode="&#xf00b;" horiz-adv-x="2048" d="M0 110v219q0 46 32 78t78 32h365q46 0 78 -32t32 -78v-219q0 -46 -32 -78t-78 -32h-365q-46 0 -78 32t-32 78zM0 695v219q0 46 32 78t78 32h365q46 0 78 -32t32 -78v-219q0 -46 -32 -78t-78 -32h-365q-46 0 -78 32t-32 78zM0 1280v219q0 46 32 78t78 32h365q46 0 78 -32 t32 -78v-219q0 -46 -32 -78t-78 -32h-365q-46 0 -78 32t-32 78zM731 110v219q0 46 32 78t78 32h1097q46 0 78 -32t32 -78v-219q0 -46 -32 -78t-78 -32h-1097q-46 0 -78 32t-32 78zM731 695v219q0 46 32 78t78 32h1097q46 0 78 -32t32 -78v-219q0 -46 -32 -78t-78 -32h-1097 q-46 0 -78 32t-32 78zM731 1280v219q0 46 32 78t78 32h1097q46 0 78 -32t32 -78v-219q0 -46 -32 -78t-78 -32h-1097q-46 0 -78 32t-32 78z" />
<glyph unicode="&#xf00c;" horiz-adv-x="2048" d="M138 695q0 46 32 78l156 155q32 32 77.5 32t77.5 -32l336 -337l750 751q32 32 77.5 32t77.5 -32l156 -156q32 -32 32 -77.5t-32 -77.5l-828 -828l-155 -155q-32 -32 -78 -32t-78 32l-155 155l-414 414q-32 32 -32 78z" />
<glyph unicode="&#xf00d;" horiz-adv-x="1609" d="M126 244.5q0 45.5 32 77.5l336 336l-336 336q-32 32 -32 78t32 78l155 155q32 32 78 32t78 -32l336 -336l336 336q32 32 77.5 32t77.5 -32l155 -155q32 -32 32 -78t-32 -78l-336 -336l336 -336q32 -32 32 -77.5t-32 -77.5l-155 -156q-32 -32 -77.5 -32t-77.5 32l-336 336 l-336 -336q-32 -32 -78 -32t-78 32l-155 156q-32 32 -32 77.5z" />
<glyph unicode="&#xf00e;" horiz-adv-x="1901" d="M0 804.5q0 163.5 63.5 312.5t171.5 257t257 171.5t312.5 63.5t312.5 -63.5t257 -171.5t171.5 -257t63.5 -312q0 -251 -142 -456l392 -392q43 -43 43 -103.5t-43 -103.5t-104 -43q-62 0 -102 44l-392 391q-205 -142 -456 -142q-163 0 -312.5 63.5t-257.5 171.5t-171.5 257 t-63.5 312.5zM293 804.5q0 -211.5 150 -361.5t361.5 -150t362 150t150.5 361.5t-150.5 362t-362 150.5t-361.5 -150.5t-150 -362zM439 768v73q0 15 11 26t25 11h256v256q0 15 11 25.5t26 10.5h73q15 0 26 -10.5t11 -25.5v-256h256q15 0 25.5 -11t10.5 -26v-73 q0 -15 -10.5 -26t-25.5 -11h-256v-256q0 -15 -11 -25.5t-26 -10.5h-73q-15 0 -26 11t-11 25v256h-256q-15 0 -25.5 11t-10.5 26z" />
<glyph unicode="&#xf010;" horiz-adv-x="1901" d="M0 804.5q0 163.5 63.5 312.5t171.5 257t257 171.5t312.5 63.5t312.5 -63.5t257 -171.5t171.5 -257t63.5 -312q0 -251 -142 -456l392 -392q43 -43 43 -103.5t-43 -103.5t-104 -43q-62 0 -102 44l-392 391q-205 -142 -456 -142q-163 0 -312.5 63.5t-257.5 171.5t-171.5 257 t-63.5 312.5zM293 804.5q0 -211.5 150 -361.5t361.5 -150t362 150t150.5 361.5t-150.5 362t-362 150.5t-361.5 -150.5t-150 -362zM439 768v73q0 15 11 26t25 11h659q15 0 25.5 -11t10.5 -26v-73q0 -15 -10.5 -26t-25.5 -11h-659q-15 0 -25.5 11t-10.5 26z" />
<glyph unicode="&#xf011;" d="M0 731q0 208 92 392t259 309q49 37 109 29t95 -58q37 -48 28.5 -108t-56.5 -96q-112 -85 -173 -207t-61 -261q0 -119 46 -226.5t125 -186.5t187 -125.5t227 -46.5t227 46.5t186.5 125.5t125 187t46.5 226q0 138 -61 260.5t-173 207.5q-48 37 -57 96.5t28 107.5 q35 49 96 57.5t109 -28.5q167 -125 258.5 -309t91.5 -392q0 -178 -69.5 -340t-187 -280t-280 -187.5t-341 -69.5t-340.5 69.5t-280 187.5t-187.5 280t-69.5 340zM731 878v731q0 59 43.5 102.5t103 43.5t103 -43.5t43.5 -102.5v-731q0 -59 -43.5 -103t-103 -44t-103 43.5 t-43.5 103.5z" />
<glyph unicode="&#xf012;" horiz-adv-x="2048" d="M0 -110v220q0 16 10.5 26t26.5 10h219q16 0 26.5 -10t10.5 -26v-220q0 -16 -10.5 -26t-26.5 -10h-219q-16 0 -26.5 10t-10.5 26zM439 -110v366q0 16 10 26.5t26 10.5h220q16 0 26 -10.5t10 -26.5v-366q0 -16 -10 -26t-26 -10h-220q-16 0 -26 10t-10 26zM878 -110v659 q0 16 10 26t26 10h220q16 0 26 -10t10 -26v-659q0 -16 -10 -26t-26 -10h-220q-16 0 -26 10t-10 26zM1317 -110v1097q0 16 10 26.5t26 10.5h220q16 0 26 -10.5t10 -26.5v-1097q0 -16 -10 -26t-26 -10h-220q-16 0 -26 10t-10 26zM1755 -110v1683q0 16 10.5 26t26.5 10h219 q16 0 26.5 -10t10.5 -26v-1683q0 -16 -10.5 -26t-26.5 -10h-219q-16 0 -26.5 10t-10.5 26z" />
<glyph unicode="&#xf013;" d="M0 607v254q0 14 9 26t22 15l212 32q16 53 45 105q-46 65 -122 158q-11 14 -12 27q0 11 11 26q30 41 112.5 123t107.5 82q15 0 30 -12l158 -122q50 26 104 44q18 155 33 212q8 32 41 32h254q16 0 28 -9.5t13 -24.5l32 -210q56 -18 103 -43l162 123q10 10 27 10 q15 0 29 -12q147 -136 188 -194q8 -9 8 -25q0 -14 -9 -26q-17 -24 -58 -76t-62 -81q30 -57 47 -112l209 -32q15 -2 24 -14t9 -27v-254q0 -14 -9 -26.5t-23 -14.5l-211 -32q-22 -62 -45 -104q40 -57 123 -158q11 -14 11 -28.5t-10 -25.5q-31 -42 -113.5 -123.5t-107.5 -81.5 q-14 0 -29 10l-158 124q-50 -26 -104 -44q-18 -155 -33 -212q-8 -32 -41 -32h-254q-16 0 -28 9.5t-13 24.5l-32 210q-56 18 -103 43l-161 -123q-11 -10 -29 -10q-16 0 -28 13q-144 130 -189 192q-8 11 -8 26q0 14 9 26q17 24 58.5 76t61.5 81q-31 57 -47 113l-209 31 q-15 2 -24 14t-9 27zM585 731.5q0 -121.5 86 -207t207 -85.5t206.5 85.5t85.5 207t-85.5 207t-206.5 85.5t-207 -85.5t-86 -207z" />
<glyph unicode="&#xf014;" horiz-adv-x="1609" d="M0 1207v73q0 16 10.5 26.5t26.5 10.5h353l80 190q17 42 61.5 72t90.5 30h365q46 0 90.5 -29.5t61.5 -72.5l80 -190h354q16 0 26 -10.5t10 -26.5v-73q0 -16 -10 -26.5t-26 -10.5h-110v-1083q0 -95 -54 -164t-129 -69h-951q-75 0 -129 66.5t-54 161.5v1088h-109 q-16 0 -26.5 10.5t-10.5 26.5zM293 87q0 -25 8 -46.5t16.5 -31t11.5 -9.5h951q3 0 12 9.5t17 31t8 46.5v1083h-1024v-1083zM439 256v658q0 16 10 26.5t26 10.5h74q16 0 26 -10.5t10 -26.5v-658q0 -16 -10 -26.5t-26 -10.5h-74q-16 0 -26 10.5t-10 26.5zM549 1317h512 l-55 133q-8 10 -20 13h-362q-11 -2 -19 -13zM731 256v658q0 16 10.5 26.5t26.5 10.5h73q16 0 26.5 -10.5t10.5 -26.5v-658q0 -16 -10.5 -26.5t-26.5 -10.5h-73q-16 0 -26.5 10.5t-10.5 26.5zM1024 256v658q0 16 10.5 26.5t26.5 10.5h73q16 0 26 -10.5t10 -26.5v-658 q0 -16 -10 -26.5t-26 -10.5h-73q-16 0 -26.5 10.5t-10.5 26.5z" />
<glyph unicode="&#xf015;" horiz-adv-x="1901" d="M30 727.5q1 15.5 12 24.5l822 685q37 30 87 29.5t87 -29.5l279 -234v223q0 16 10 26.5t26 10.5h220q16 0 26 -10.5t10 -26.5v-466l250 -208q11 -9 12.5 -24.5t-7.5 -26.5l-71 -85q-9 -10 -24 -13h-3q-15 0 -24 8l-791 660l-791 -660q-14 -9 -27 -8q-15 2 -24 13l-71 85 q-9 11 -8 26.5zM293 73v549q0 1 0.5 3t0.5 4l657 541l657 -541q1 -2 1 -7v-549q0 -30 -21.5 -51.5t-51.5 -21.5h-439v439h-292v-439h-439q-30 0 -51.5 21.5t-21.5 51.5z" />
<glyph unicode="&#xf016;" horiz-adv-x="1462" d="M0 -37v1536q0 46 32 78t78 32h621q46 0 101 -23t87 -55l466 -466q32 -32 55 -86.5t23 -100.5v-915q0 -46 -32 -77.5t-78 -31.5h-1243q-46 0 -78 32t-32 77zM146 0h1171v878h-476q-46 0 -78 32t-32 77v476h-585v-1463zM878 1024h341l-341 342v-342z" />
<glyph unicode="&#xf017;" d="M0 731.5q0 238.5 117.5 440.5t319.5 319.5t441 117.5t440.5 -117.5t319 -319.5t117.5 -440.5t-117.5 -440.5t-319 -319.5t-440.5 -117.5t-441 117.5t-319.5 319.5t-117.5 440.5zM293 731.5q0 -118.5 46 -226.5t125 -187t187 -125.5t227 -46.5t227 46.5t186.5 125.5 t125 187t46.5 226.5t-46.5 226.5t-125 187t-186.5 125.5t-227 46.5t-227 -46.5t-187 -125.5t-125 -187t-46 -226.5zM731 622v512q0 15 11 25.5t26 10.5h73q15 0 26 -10.5t11 -25.5v-403h329q15 0 25.5 -10.5t10.5 -25.5v-73q0 -15 -10.5 -26t-25.5 -11h-439q-15 0 -26 11 t-11 26z" />
<glyph unicode="&#xf018;" horiz-adv-x="2194" d="M57 83q0 62 30 133l476 1193q9 22 30 38t44 16h387q-15 0 -26.5 -11t-12.5 -26l-17 -219q-1 -16 9 -26.5t25 -10.5h190q15 0 25 10.5t9 26.5l-17 219q-1 15 -12.5 26t-26.5 11h388q23 0 43.5 -16t29.5 -38l476 -1193q30 -71 30 -133q0 -83 -52 -83h-805q15 0 25 11t9 26 l-23 292q-1 15 -12.5 26t-25.5 11h-311q-15 0 -26.5 -11t-12.5 -26l-23 -292q-1 -15 9 -26t25 -11h-804q-53 0 -53 83zM925 617q-1 -14 9 -23t24 -9h279q14 0 24 9t9 23v5l-28 365q-1 15 -12.5 26t-26.5 11h-212q-15 0 -26.5 -11t-12.5 -26l-27 -365v-5z" />
<glyph unicode="&#xf019;" horiz-adv-x="1901" d="M0 -110v659q0 16 10.5 26t26.5 10h219q16 0 26.5 -10t10.5 -26v-403h1316v403q0 16 10.5 26t26.5 10h219q16 0 26.5 -10t10.5 -26v-659q0 -16 -10.5 -26t-26.5 -10h-1828q-16 0 -26.5 10t-10.5 26zM371 833q19 45 68 45h292v512q0 30 22 51.5t52 21.5h292q30 0 51.5 -22 t21.5 -51v-512h293q48 0 67 -45q19 -47 -16 -80l-512 -512q-21 -22 -51.5 -22t-51.5 22l-512 512q-35 33 -16 80z" />
<glyph unicode="&#xf01a;" d="M0 731.5q0 238.5 117.5 440.5t319.5 319.5t441 117.5t440.5 -117.5t319 -319.5t117.5 -440.5t-117.5 -440.5t-319 -319.5t-440.5 -117.5t-441 117.5t-319.5 319.5t-117.5 440.5zM293 731.5q0 -118.5 46 -226.5t125 -187t187 -125.5t227 -46.5t227 46.5t186.5 125.5 t125 187t46.5 226.5t-46.5 226.5t-125 187t-186.5 125.5t-227 46.5t-227 -46.5t-187 -125.5t-125 -187t-46 -226.5zM475 695q0 15 11 25.5t26 10.5h219v403q0 15 11 25.5t26 10.5h219q15 0 26 -10.5t11 -25.5v-403h219q16 0 26.5 -10t10.5 -26q0 -14 -11 -28l-365 -364 q-10 -10 -26 -10t-27 10l-365 366q-10 10 -11 26z" />
<glyph unicode="&#xf01b;" d="M0 731.5q0 238.5 117.5 440.5t319.5 319.5t441 117.5t440.5 -117.5t319 -319.5t117.5 -440.5t-117.5 -440.5t-319 -319.5t-440.5 -117.5t-441 117.5t-319.5 319.5t-117.5 440.5zM293 731.5q0 -118.5 46 -226.5t125 -187t187 -125.5t227 -46.5t227 46.5t186.5 125.5 t125 187t46.5 226.5t-46.5 226.5t-125 187t-186.5 125.5t-227 46.5t-227 -46.5t-187 -125.5t-125 -187t-46 -226.5zM475 768q0 14 12 27l364 365q10 10 26.5 10t26.5 -10l366 -366q10 -10 10 -26q0 -15 -11 -26t-26 -11h-219v-402q0 -15 -11 -25.5t-26 -10.5h-219 q-15 0 -26 10.5t-11 25.5v402h-219q-16 0 -26.5 10.5t-10.5 26.5z" />
<glyph unicode="&#xf01c;" d="M0 73v551q0 71 29 141l272 630q11 29 41.5 48.5t59.5 19.5h951q30 0 60 -19.5t42 -48.5l272 -630q28 -70 28 -141v-551q0 -30 -21.5 -51.5t-51.5 -21.5h-1609q-30 0 -51.5 21.5t-21.5 51.5zM225 658h361l109 -219h366l108 219h361q-1 3 -2.5 9l-2.5 10l-243 566h-809 l-242 -566q-1 -2 -3 -9t-3 -10z" />
<glyph unicode="&#xf01d;" d="M0 731.5q0 238.5 117.5 440.5t319.5 319.5t441 117.5t440.5 -117.5t319 -319.5t117.5 -440.5t-117.5 -440.5t-319 -319.5t-440.5 -117.5t-441 117.5t-319.5 319.5t-117.5 440.5zM293 731.5q0 -118.5 46 -226.5t125 -187t187 -125.5t227 -46.5t227 46.5t186.5 125.5 t125 187t46.5 226.5t-46.5 226.5t-125 187t-186.5 125.5t-227 46.5t-227 -46.5t-187 -125.5t-125 -187t-46 -226.5zM585 402v659q0 42 37 62q35 23 72 2l585 -330q38 -21 38 -63.5t-38 -64.5l-585 -329q-16 -9 -35.5 -9t-36.5 10q-37 21 -37 63z" />
<glyph unicode="&#xf01e;" d="M0 731.5q0 178.5 69.5 340.5t187.5 280t280 187.5t341 69.5q168 0 325 -63.5t279 -178.5l149 147q33 35 80 16q44 -19 44 -67v-512q0 -30 -21.5 -51.5t-51.5 -21.5h-512q-48 0 -67 45t16 79l158 158q-169 157 -399 157q-119 0 -227 -46.5t-187 -125.5t-125 -187 t-46 -226.5t46 -226.5t125 -187t187 -125.5t227 -46.5q193 0 347 114t212 299q8 26 34 26h227q18 0 29 -14q11 -15 8 -30q-45 -200 -169 -357t-304 -243.5t-384 -86.5q-178 0 -340.5 69.5t-280.5 187.5t-187.5 280t-69.5 340.5z" />
<glyph unicode="&#xf021;" d="M0 0v512q0 30 21.5 51.5t51.5 21.5h512q30 0 51.5 -21.5t21.5 -51.5t-21 -51l-157 -157q81 -75 184 -116.5t214 -41.5q153 0 285.5 74.5t212.5 204.5q13 19 61 134q9 26 34 26h219q15 0 26 -10.5t11 -25.5q0 -6 -1 -8q-73 -306 -306.5 -496.5t-546.5 -190.5 q-167 0 -323 62.5t-278 179.5l-147 -147q-22 -22 -52 -22t-51.5 21.5t-21.5 51.5zM21 914v8q74 306 308 496.5t549 190.5q167 0 324.5 -63.5t279.5 -178.5l149 147q22 22 51.5 22t51 -21.5t21.5 -51.5v-512q0 -30 -21.5 -51.5t-51.5 -21.5h-512q-30 0 -51.5 21.5t-21.5 51.5 t22 51l158 158q-169 157 -399 157q-153 0 -286 -74.5t-213 -204.5q-13 -19 -60 -134q-9 -26 -34 -26h-228q-15 0 -25.5 10.5t-10.5 25.5z" />
<glyph unicode="&#xf022;" horiz-adv-x="2048" d="M0 183v1243q0 75 53.5 129t129.5 54h1682q75 0 129 -54t54 -129v-1243q0 -75 -53.5 -129t-129.5 -54h-1682q-75 0 -129 53.5t-54 129.5zM146 183q0 -15 11 -26t26 -11h1682q15 0 26 11t11 26v951q0 15 -11 25.5t-26 10.5h-1682q-15 0 -26 -10.5t-11 -25.5v-951zM293 329 v73q0 15 10.5 26t25.5 11h73q15 0 26 -11t11 -26v-73q0 -15 -11 -25.5t-26 -10.5h-73q-15 0 -25.5 10.5t-10.5 25.5zM293 622v73q0 15 10.5 25.5t25.5 10.5h73q15 0 26 -10.5t11 -25.5v-73q0 -15 -11 -26t-26 -11h-73q-15 0 -25.5 11t-10.5 26zM293 914v73q0 15 10.5 26 t25.5 11h73q15 0 26 -11t11 -26v-73q0 -15 -11 -25.5t-26 -10.5h-73q-15 0 -25.5 10.5t-10.5 25.5zM585 329v73q0 15 11 26t26 11h1097q15 0 25.5 -11t10.5 -26v-73q0 -15 -10.5 -25.5t-25.5 -10.5h-1097q-15 0 -26 10.5t-11 25.5zM585 622v73q0 15 11 25.5t26 10.5h1097 q15 0 25.5 -10.5t10.5 -25.5v-73q0 -15 -10.5 -26t-25.5 -11h-1097q-15 0 -26 11t-11 26zM585 914v73q0 15 11 26t26 11h1097q15 0 25.5 -11t10.5 -26v-73q0 -15 -10.5 -25.5t-25.5 -10.5h-1097q-15 0 -26 10.5t-11 25.5z" />
<glyph unicode="&#xf023;" horiz-adv-x="1316" d="M0 110v658q0 46 32 78t78 32h36v219q0 210 151 361t361.5 151t361 -151t150.5 -361v-219h37q46 0 78 -32t32 -78v-658q0 -46 -32 -78t-78 -32h-1097q-46 0 -78 32t-32 78zM366 878h585v219q0 121 -86 207t-207 86t-206.5 -86t-85.5 -207v-219zM512 585q0 -42 21.5 -76.5 t58.5 -53.5l-79 -262q-6 -17 5.5 -32t30.5 -15h219q18 0 29.5 15t5.5 32l-78 262q37 19 58.5 53.5t21.5 76.5q0 61 -43 103.5t-103.5 42.5t-103.5 -42.5t-43 -103.5z" />
<glyph unicode="&#xf024;" horiz-adv-x="2048" d="M73 1463q0 61 43 103.5t103.5 42.5t103.5 -42.5t43 -103.5q0 -82 -73 -126v-1447q0 -15 -11 -25.5t-26 -10.5h-73q-15 0 -26 10.5t-11 25.5v1447q-73 43 -73 126zM366 366v848q0 37 35 63q24 16 90 49q270 137 482 137q122 0 228 -33t250 -101q43 -22 101 -22 q62 0 134.5 24t125.5 54t100.5 54t62.5 24q30 0 51.5 -21.5t21.5 -51.5v-872q0 -29 -14.5 -44.5t-44.5 -31.5q-246 -133 -422 -132q-70 0 -141.5 25t-124 54.5t-132 55t-162.5 25.5q-219 0 -530 -167q-19 -10 -38 -10q-30 0 -51.5 21.5t-21.5 51.5z" />
<glyph unicode="&#xf025;" horiz-adv-x="1901" d="M0 743q0 173 76.5 332.5t204.5 277t304 187t366 69.5t366 -69.5t304 -187t204.5 -277t76.5 -332.5q0 -190 -69 -359l-23 -56l-211 -38q-25 -95 -103.5 -156t-178.5 -61v-36q0 -16 -10.5 -26.5t-26.5 -10.5h-73q-16 0 -26.5 10.5t-10.5 26.5v658q0 16 10.5 26t26.5 10h73 q16 0 26.5 -10t10.5 -26v-37q81 0 148.5 -40.5t105.5 -108.5l78 13q33 109 33 221q0 169 -100.5 318.5t-270 239t-360.5 89.5t-360.5 -89.5t-270.5 -239t-101 -318.5q0 -112 34 -221l77 -13q39 69 106.5 109t148.5 40v37q0 16 10.5 26t26.5 10h73q16 0 26 -10t10 -26v-658 q0 -16 -10 -26.5t-26 -10.5h-73q-16 0 -26.5 10.5t-10.5 26.5v36q-101 0 -179 61t-103 156l-212 38l-22 56q-69 169 -69 359z" />
<glyph unicode="&#xf026;" horiz-adv-x="877" d="M0 512v439q0 30 21.5 51.5t51.5 21.5h300l380 381q22 22 51.5 21.5t51.5 -22t22 -51.5v-1243q0 -30 -22 -51.5t-51.5 -21.5t-51.5 21l-380 381h-300q-30 0 -51.5 21.5t-21.5 51.5z" />
<glyph unicode="&#xf027;" horiz-adv-x="1316" d="M0 512v439q0 30 21.5 51.5t51.5 21.5h300l380 381q22 22 51.5 21.5t51.5 -22t22 -51.5v-1243q0 -30 -22 -51.5t-51.5 -21.5t-51.5 21l-380 381h-300q-30 0 -51.5 21.5t-21.5 51.5zM1038 530q0 24 13.5 40.5t33 28.5t39 26.5t33 41t13.5 65t-13.5 65t-33 40.5t-39 26 t-33 29t-13.5 41q0 31 21.5 52t51.5 21q17 0 28 -6q80 -31 129 -106.5t49 -162t-49 -161.5t-129 -107q-11 -6 -28 -6q-30 0 -51.5 21t-21.5 52z" />
<glyph unicode="&#xf028;" horiz-adv-x="1901" d="M0 512v439q0 30 21.5 51.5t51.5 21.5h300l380 381q22 22 51.5 21.5t51.5 -22t22 -51.5v-1243q0 -30 -22 -51.5t-51.5 -21.5t-51.5 21l-380 381h-300q-30 0 -51.5 21.5t-21.5 51.5zM1038 530q0 24 13.5 40.5t33 28.5t39 26.5t33 41t13.5 65t-13.5 65t-33 40.5t-39 26 t-33 29t-13.5 41q0 31 21.5 52t51.5 21q17 0 28 -6q80 -31 129 -106.5t49 -162t-49 -161.5t-129 -107q-11 -6 -28 -6q-30 0 -51.5 21t-21.5 52zM1152 261q0 45 45 67q64 33 86 50q85 62 132.5 155t47.5 198.5t-47.5 198.5t-132.5 155q-23 17 -86 50q-45 23 -45 67 q0 30 21.5 51.5t51.5 21.5q15 0 30 -5q160 -67 257 -215.5t97 -323t-97 -322.5t-257 -216q-15 -6 -29 -6q-31 0 -52.5 22t-21.5 52zM1267 -8q0 41 45 67q8 5 25.5 12.5t25.5 11.5q53 29 94 59q141 104 219.5 259.5t78.5 330t-78.5 330t-219.5 259.5q-41 30 -94 58 q-8 5 -25.5 12.5t-25.5 11.5q-45 26 -45 68q0 30 22 51.5t52 21.5q15 0 29 -6q241 -104 386.5 -324t145.5 -482.5t-145.5 -482.5t-386.5 -324q-15 -6 -29 -6q-30 0 -52 21.5t-22 51.5z" />
<glyph unicode="&#xf029;" horiz-adv-x="1609" d="M0 0v731h731v-731h-731zM0 878v731h731v-731h-731zM146 147h439v438h-439v-438zM146 1024h439v439h-439v-439zM293 293v146h146v-146h-146zM293 1170v147h146v-147h-146zM878 0v731h439v-146h146v146h146v-438h-439v146h-146v-439h-146zM878 878v731h731v-731h-731z M1024 1024h439v439h-439v-439zM1170 0v146h147v-146h-147zM1170 1170v147h147v-147h-147zM1463 0v146h146v-146h-146z" />
<glyph unicode="&#xf02a;" horiz-adv-x="2048" d="M0 -146v1755h293v-1755h-293zM366 -146v1755h146v-1755h-146zM585 -146v1755h73v-1755h-73zM695 -146v1755h73v-1755h-73zM878 -146v1755h146v-1755h-146zM1170 -146v1755h293v-1755h-293zM1536 -146v1755h73v-1755h-73zM1719 -146v1755h73v-1755h-73zM1902 -146v1755 h146v-1755h-146z" />
<glyph unicode="&#xf02b;" d="M0 987v476q0 59 43.5 102.5t102.5 43.5h476q61 0 134 -30t116 -74l817 -816q42 -45 42 -104q0 -61 -42 -103l-561 -562q-45 -42 -104 -42q-61 0 -103 42l-817 818q-43 42 -73.5 115.5t-30.5 133.5zM219 1243.5q0 -60.5 43 -103.5t103.5 -43t103.5 43t43 103.5t-43 103.5 t-103.5 43t-103.5 -43t-43 -103.5z" />
<glyph unicode="&#xf02c;" horiz-adv-x="2194" d="M0 987v476q0 59 43.5 102.5t102.5 43.5h476q61 0 134 -30t116 -74l817 -816q42 -45 42 -104q0 -61 -42 -103l-561 -562q-45 -42 -104 -42q-61 0 -103 42l-817 818q-43 42 -73.5 115.5t-30.5 133.5zM219 1243.5q0 -60.5 43 -103.5t103.5 -43t103.5 43t43 103.5t-43 103.5 t-103.5 43t-103.5 -43t-43 -103.5zM805 1609h256q61 0 133.5 -30t116.5 -74l817 -816q42 -45 42 -104q0 -61 -42 -103l-561 -562q-45 -42 -104 -42q-41 0 -67.5 16t-60.5 51l537 537q42 42 42 103q0 59 -42 104l-817 816q-43 43 -116.5 73.5t-133.5 30.5z" />
<glyph unicode="&#xf02d;" horiz-adv-x="1901" d="M11 210q0 5 3.5 31t4.5 42q1 9 -3.5 24.5t-2.5 22.5q2 13 9 24.5t19 27t18 26.5q26 43 51.5 104.5t34.5 104.5q3 11 0.5 34t-0.5 32q3 13 19.5 32.5t19.5 26.5q24 41 48 105t29 103q1 10 -3 36.5t0 31.5q5 15 25.5 35t25.5 26q22 30 48.5 96.5t31.5 110.5q1 9 -3.5 29 t-2.5 30q2 9 10 20.5t20.5 26.5t19.5 24q9 14 19 35t17.5 40t18 41t22 36.5t30.5 27t41 13t54 -6.5l-1 -3q43 10 59 10h869q85 0 130.5 -64t20.5 -148l-313 -1036q-41 -136 -81.5 -175.5t-147.5 -39.5h-993q-31 0 -43 -17q-13 -18 -1 -49q27 -80 164 -80h1055q33 0 64 17.5 t40 47.5l343 1128q8 25 6 65q43 -17 67 -49q46 -65 21 -147l-315 -1036q-22 -73 -87.5 -122.5t-139.5 -49.5h-1055q-88 0 -169.5 61t-113.5 150q-27 77 -3 145zM562 914q-5 -15 2 -25.5t23 -10.5h695q15 0 29.5 10.5t18.5 25.5l24 73q5 15 -2 26t-23 11h-695q-15 0 -29 -11 t-19 -26zM657 1207q-5 -15 2 -26t23 -11h695q15 0 29.5 11t18.5 26l24 73q5 15 -2 26t-23 11h-695q-15 0 -29 -11t-19 -26z" />
<glyph unicode="&#xf02e;" horiz-adv-x="1462" d="M0 8v1473q0 39 22.5 71t59.5 47q24 10 51 10h1197q26 0 51 -10q38 -15 60 -47t22 -71v-1473q0 -39 -22.5 -71t-59.5 -47q-22 -9 -51 -9q-55 0 -95 37l-504 484l-504 -484q-41 -38 -94 -38q-26 0 -51 10q-38 15 -60 47t-22 71z" />
<glyph unicode="&#xf02f;" horiz-adv-x="1901" d="M0 183v475q0 90 64.5 155t154.5 65h74v621q0 46 32 78t77 32h768q46 0 101 -23t87 -55l173 -173q32 -32 55 -87t23 -101v-292h73q90 0 155 -65t65 -155v-475q0 -15 -11 -26t-26 -11h-256v-183q0 -46 -32 -77.5t-78 -31.5h-1097q-46 0 -77.5 32t-31.5 77v183h-256 q-15 0 -26 11t-11 26zM439 0h1024v293h-1024v-293zM439 731h1024v439h-183q-46 0 -78 32t-32 78v183h-731v-732zM1609 658.5q0 -29.5 22 -51.5t51.5 -22t51 22t21.5 51.5t-21.5 51t-51 21.5t-51.5 -21.5t-22 -51z" />
<glyph unicode="&#xf030;" horiz-adv-x="2194" d="M0 146v1024q0 121 85.5 207t207.5 86h256l58 155q22 56 79.5 96.5t118.5 40.5h585q61 0 118.5 -40.5t78.5 -96.5l59 -155h256q121 0 206.5 -86t85.5 -207v-1024q0 -121 -85.5 -206.5t-206.5 -85.5h-1609q-121 0 -207 85.5t-86 206.5zM585 658.5q0 -211.5 150.5 -362 t362 -150.5t361.5 150.5t150 362t-150 361.5t-361.5 150t-362 -150t-150.5 -361.5zM768 658q0 136 96.5 232.5t232.5 96.5t232.5 -96.5t96.5 -232.5t-96.5 -232.5t-232.5 -96.5t-232.5 96.5t-96.5 232.5z" />
<glyph unicode="&#xf031;" horiz-adv-x="1901" d="M0 -146l2 90q25 8 92 21q102 18 125 35q23 18 55 78l271 704l320 827h86h60l13 -24l234 -548q118 -277 142 -340q45 -117 110 -268q30 -66 74 -188q27 -77 74 -170q25 -56 40 -65q25 -22 79 -27q54 -7 118 -30q7 -45 7 -66q0 -16 -1 -29q-91 0 -220 9q-106 9 -216 9 q-90 0 -154 -2l-229 -13l-66 -2q0 51 5 89l149 32q64 15 78 26q14 14 14 31t-7 37l-54 130l-105 261l-514 2q-33 -74 -119 -313q-26 -73 -26 -96q0 -35 19 -49q30 -24 118 -37q3 0 15 -2.5t34.5 -5.5t46.5 -7q1 -32 1 -66q0 -19 -2 -31q-75 0 -399 23l-55 -9 q-93 -16 -191 -16h-24zM634 602q83 -1 175.5 -2t136.5 -1.5t60 -0.5l33 2q-37 109 -105 275q-60 152 -105 242z" />
<glyph unicode="&#xf032;" horiz-adv-x="1609" d="M0 -146l2 107q51 10 78 14q88 14 141 35q19 31 24 59q10 75 10 221l-2 568q-6 293 -11 462q-1 99 -12 125q-1 5 -14 13q-21 14 -79 17q-34 2 -130 15l-5 95l297 7l435 15l51 1q6 0 16 0.5t16 0.5q1 0 24.5 -0.5t46.5 -0.5h85q101 0 218 -31q49 -15 110 -44 q65 -33 116 -87q50 -54 74 -119t24 -140q0 -80 -36.5 -146t-108.5 -120q-30 -23 -171 -88q202 -47 305 -167q105 -121 105 -269q0 -87 -33 -184q-24 -71 -81 -134q-75 -82 -160 -124q-83 -41 -232 -68q-94 -17 -226 -13l-226 5q-96 2 -340 -13q-38 -3 -311 -12zM609 1477 q0 -50 2 -88q8 -139 7 -319l-1 -112q0 -49 1 -88q49 -8 125 -8q200 0 301.5 74t101.5 256q0 128 -97 214q-96 86 -291 85q-59 0 -149 -14zM617 376l4 -309q-1 -17 13 -50q87 -37 160 -36q150 0 247 46.5t140 129.5q43 80 43 206q0 130 -47 206q-66 107 -161 144 q-91 37 -282 37q-85 0 -116 -12v-164z" />
<glyph unicode="&#xf033;" horiz-adv-x="1170" d="M0 -144l19 97q5 1 88 23q87 22 133 45q33 42 47 115l31 159l64 306l13 73q9 50 19.5 96.5t18.5 77t14.5 53t10.5 34.5t4 14l33 179l18 72l25 154l9 57v44q-47 25 -164 32q-32 2 -44 4l22 118l362 -16q45 -2 84 -2q75 0 244 10q38 2 78 5t41 3q-2 -22 -7 -43 q-8 -33 -14 -59q-63 -22 -125 -35q-73 -18 -115 -35q-14 -35 -28 -101q-10 -50 -15 -94q-50 -227 -75 -349l-70 -356l-43 -180l-49 -269l-14 -51q-2 -8 1 -31q73 -17 136 -24q41 -6 75 -12q-1 -33 -8 -66q-8 -35 -10 -47q-21 0 -26 -1q-27 -2 -48 -2q-10 0 -32 3 q-22 5 -166 20l-226 2q-47 1 -199 -13q-85 -8 -112 -10z" />
<glyph unicode="&#xf034;" horiz-adv-x="2048" d="M0 1169v340v98l93 1l61 -31q23 -6 241 -6h149l22 4l131 1l246 -1h335l39 -2q16 -1 32 8t24 18l8 9l48 1q17 0 32 -1v-119.5t1 -150.5l1 -114l-1 -66q0 -37 -5 -59q-45 -17 -78 -20q-29 49 -61 146q-9 27 -18 71.5t-13.5 75t-6.5 33.5q-15 17 -31 21q-8 2 -48.5 2.5 t-118 -1t-127.5 -1.5q-39 0 -76 -5q-11 -111 -9 -156l1 -174v-379l3 -410l-1 -168q-1 -53 13 -97q56 -29 101 -37q2 0 20.5 -5.5t50.5 -15t49 -13.5q34 -9 58 -21q6 -51 5 -57q0 -11 -3 -33q-16 -1 -39 -1q-126 0 -214 11q-82 9 -272 9q-101 0 -266 -16q-55 -5 -80 -4 q-2 25 -2 29l-1 30v10q24 38 90 56q159 43 182 58q10 24 13 64q9 219 7 494l-6 490q-1 71 -0.5 135.5t0.5 117t-2 65t-7 16.5q-7 6 -16 7q-43 7 -169 7q-49 0 -114 -15.5t-84 -27.5q-15 -10 -25 -37.5t-25 -86t-27 -96.5q-7 -22 -22.5 -36.5t-23.5 -14.5q-50 31 -64 50z M1616 125q10 21 48 21h91v1171h-91q-38 0 -48 21t13 51l144 185q23 30 56 29.5t56 -29.5l144 -185q23 -30 12.5 -51t-48.5 -21h-91v-1171h91q38 0 48 -21t-12 -51l-144 -185q-23 -30 -56.5 -30t-55.5 30l-144 185q-23 30 -13 51z" />
<glyph unicode="&#xf035;" d="M0 1169v340v98l93 1l61 -31q23 -6 241 -6h149l22 4l131 1l510 -1h363l39 -2q16 -1 32 8t24 18l8 9l48 1q17 0 32 -1v-119.5t1 -150.5l1 -114l-1 -66q0 -37 -4 -59q-45 -17 -78 -20q-29 49 -62 146q-9 27 -17.5 71.5t-13 75t-6.5 33.5q-15 17 -31 21q-8 2 -67 2.5 t-158.5 -1t-146.5 -1.5q-107 0 -145 -5q-11 -111 -9 -156l1 -174v60l4 -410l-2 -168q-1 -53 13 -98q56 -29 102 -36q2 0 20.5 -6t50.5 -15t49 -13q34 -9 57 -21q6 -51 6 -57q0 -11 -4 -33q-16 -1 -39 -1q-126 0 -213 11q-82 9 -272 9q-94 0 -267 -15q-51 -6 -80 -5 q-2 25 -2 29l-1 30v10q24 38 90 56q159 43 182 57q10 24 14 64q7 157 6 495l-5 51q0 303 -3 317q-2 13 -6 17q-7 6 -16 7q-43 7 -170 7q-57 0 -192.5 -16t-151.5 -27q-15 -10 -25 -37.5t-25 -86t-27 -96.5q-7 -22 -22.5 -36.5t-23.5 -14.5q-50 31 -64 50zM5.5 73 q0.5 33 29.5 56l186 144q30 23 51 12.5t21 -47.5v-92h1170v92q0 38 21 48t51 -13l185 -144q30 -23 30 -56t-30 -56l-185 -144q-30 -23 -51 -12.5t-21 48.5v91h-1170v-91q0 -38 -21.5 -48.5t-50.5 12.5l-186 144q-30 23 -29.5 56z" />
<glyph unicode="&#xf036;" horiz-adv-x="2048" d="M0 73v146q0 30 21.5 52t51.5 22h1902q30 0 51.5 -22t21.5 -52v-146q0 -30 -21.5 -51.5t-51.5 -21.5h-1902q-30 0 -51.5 21.5t-21.5 51.5zM0 512v146q0 30 21.5 51.5t51.5 21.5h1463q30 0 51.5 -21.5t21.5 -51.5v-146q0 -30 -21.5 -51.5t-51.5 -21.5h-1463 q-30 0 -51.5 21.5t-21.5 51.5zM0 951v146q0 30 21.5 51.5t51.5 21.5h1756q30 0 51.5 -21.5t21.5 -51.5v-146q0 -30 -22 -51.5t-51 -21.5h-1756q-30 0 -51.5 21.5t-21.5 51.5zM0 1390v146q0 30 21.5 51.5t51.5 21.5h1317q30 0 51.5 -21.5t21.5 -51.5v-146q0 -30 -22 -51.5 t-51 -21.5h-1317q-30 0 -51.5 21.5t-21.5 51.5z" />
<glyph unicode="&#xf037;" horiz-adv-x="2048" d="M0 73v146q0 30 21.5 52t51.5 22h1902q30 0 51.5 -22t21.5 -52v-146q0 -30 -21.5 -51.5t-51.5 -21.5h-1902q-30 0 -51.5 21.5t-21.5 51.5zM146 951v146q0 30 22 51.5t51 21.5h1610q30 0 51.5 -21.5t21.5 -51.5v-146q0 -30 -22 -51.5t-51 -21.5h-1610q-30 0 -51.5 21.5 t-21.5 51.5zM439 512v146q0 30 21.5 51.5t51.5 21.5h1024q30 0 51.5 -21.5t21.5 -51.5v-146q0 -30 -21.5 -51.5t-51.5 -21.5h-1024q-30 0 -51.5 21.5t-21.5 51.5zM585 1390v146q0 30 22 51.5t51 21.5h732q30 0 51.5 -21.5t21.5 -51.5v-146q0 -30 -22 -51.5t-51 -21.5h-732 q-30 0 -51.5 21.5t-21.5 51.5z" />
<glyph unicode="&#xf038;" horiz-adv-x="2048" d="M0 73v146q0 30 21.5 52t51.5 22h1902q30 0 51.5 -22t21.5 -52v-146q0 -30 -21.5 -51.5t-51.5 -21.5h-1902q-30 0 -51.5 21.5t-21.5 51.5zM146 951v146q0 30 22 51.5t51 21.5h1756q30 0 51.5 -21.5t21.5 -51.5v-146q0 -30 -21.5 -51.5t-51.5 -21.5h-1756q-30 0 -51.5 21.5 t-21.5 51.5zM439 512v146q0 30 21.5 51.5t51.5 21.5h1463q30 0 51.5 -21.5t21.5 -51.5v-146q0 -30 -21.5 -51.5t-51.5 -21.5h-1463q-30 0 -51.5 21.5t-21.5 51.5zM585 1390v146q0 30 22 51.5t51 21.5h1317q30 0 51.5 -21.5t21.5 -51.5v-146q0 -30 -21.5 -51.5t-51.5 -21.5 h-1317q-30 0 -51.5 21.5t-21.5 51.5z" />
<glyph unicode="&#xf039;" horiz-adv-x="2048" d="M0 73v146q0 30 21.5 52t51.5 22h1902q30 0 51.5 -22t21.5 -52v-146q0 -30 -21.5 -51.5t-51.5 -21.5h-1902q-30 0 -51.5 21.5t-21.5 51.5zM0 512v146q0 30 21.5 51.5t51.5 21.5h1902q30 0 51.5 -21.5t21.5 -51.5v-146q0 -30 -21.5 -51.5t-51.5 -21.5h-1902 q-30 0 -51.5 21.5t-21.5 51.5zM0 951v146q0 30 21.5 51.5t51.5 21.5h1902q30 0 51.5 -21.5t21.5 -51.5v-146q0 -30 -21.5 -51.5t-51.5 -21.5h-1902q-30 0 -51.5 21.5t-21.5 51.5zM0 1390v146q0 30 21.5 51.5t51.5 21.5h1902q30 0 51.5 -21.5t21.5 -51.5v-146 q0 -30 -21.5 -51.5t-51.5 -21.5h-1902q-30 0 -51.5 21.5t-21.5 51.5z" />
<glyph unicode="&#xf03a;" horiz-adv-x="2048" d="M0 37v219q0 15 11 26t26 11h219q15 0 26 -11t11 -26v-219q0 -15 -11 -26t-26 -11h-219q-15 0 -26 11t-11 26zM0 475v220q0 15 11 25.5t26 10.5h219q15 0 26 -10.5t11 -25.5v-220q0 -15 -11 -25.5t-26 -10.5h-219q-15 0 -26 11t-11 25zM0 914v220q0 15 11 25.5t26 10.5 h219q15 0 26 -10.5t11 -25.5v-220q0 -15 -11 -25.5t-26 -10.5h-219q-15 0 -26 10.5t-11 25.5zM0 1353v220q0 15 11 25.5t26 10.5h219q15 0 26 -10.5t11 -25.5v-220q0 -15 -11 -25.5t-26 -10.5h-219q-15 0 -26 10.5t-11 25.5zM439 37v219q0 15 11 26t25 11h1536q15 0 26 -11 t11 -26v-219q0 -15 -11 -26t-26 -11h-1536q-15 0 -25.5 11t-10.5 26zM439 475v220q0 15 11 25.5t25 10.5h1536q15 0 26 -10.5t11 -25.5v-220q0 -15 -11 -25.5t-26 -10.5h-1536q-15 0 -25.5 11t-10.5 25zM439 914v220q0 15 11 25.5t25 10.5h1536q15 0 26 -10.5t11 -25.5v-220 q0 -15 -11 -25.5t-26 -10.5h-1536q-15 0 -25.5 10.5t-10.5 25.5zM439 1353v220q0 15 11 25.5t25 10.5h1536q15 0 26 -10.5t11 -25.5v-220q0 -15 -11 -25.5t-26 -10.5h-1536q-15 0 -25.5 10.5t-10.5 25.5z" />
<glyph unicode="&#xf03b;" horiz-adv-x="2048" d="M0 37v219q0 15 11 26t26 11h1974q15 0 26 -11t11 -26v-219q0 -15 -11 -26t-26 -11h-1974q-15 0 -26 11t-11 26zM0 1353v220q0 15 11 25.5t26 10.5h1974q15 0 26 -10.5t11 -25.5v-220q0 -15 -11 -25.5t-26 -10.5h-1974q-15 0 -26 10.5t-11 25.5zM37 804.5q0 16.5 10 26.5 l329 329q10 10 26 10q15 0 26 -10.5t11 -25.5v-659q0 -15 -11 -25.5t-26 -10.5q-16 0 -26 10l-329 329q-10 10 -10 26.5zM731 475v220q0 15 11 25.5t26 10.5h1243q15 0 26 -10.5t11 -25.5v-220q0 -15 -11 -25.5t-26 -10.5h-1243q-15 0 -26 11t-11 25zM731 914v220 q0 15 11 25.5t26 10.5h1243q15 0 26 -10.5t11 -25.5v-220q0 -15 -11 -25.5t-26 -10.5h-1243q-15 0 -26 10.5t-11 25.5z" />
<glyph unicode="&#xf03c;" horiz-adv-x="2048" d="M0 37v219q0 15 11 26t26 11h1974q15 0 26 -11t11 -26v-219q0 -15 -11 -26t-26 -11h-1974q-15 0 -26 11t-11 26zM0 475v659q0 15 11 25.5t26 10.5q16 0 26 -10l329 -329q10 -10 10 -26t-10 -27l-329 -329q-10 -10 -26 -10q-15 0 -26 11t-11 25zM0 1353v220q0 15 11 25.5 t26 10.5h1974q15 0 26 -10.5t11 -25.5v-220q0 -15 -11 -25.5t-26 -10.5h-1974q-15 0 -26 10.5t-11 25.5zM731 475v220q0 15 11 25.5t26 10.5h1243q15 0 26 -10.5t11 -25.5v-220q0 -15 -11 -25.5t-26 -10.5h-1243q-15 0 -26 11t-11 25zM731 914v220q0 15 11 25.5t26 10.5 h1243q15 0 26 -10.5t11 -25.5v-220q0 -15 -11 -25.5t-26 -10.5h-1243q-15 0 -26 10.5t-11 25.5z" />
<glyph unicode="&#xf03d;" horiz-adv-x="2194" d="M0 329v805q0 136 96.5 232.5t232.5 96.5h805q136 0 232.5 -96.5t96.5 -232.5v-351l668 670q18 17 40 8q23 -9 23 -35v-1389q0 -25 -23 -35q-9 -2 -13 -2q-14 0 -27 10l-668 670v-351q0 -136 -96.5 -232.5t-232.5 -96.5h-805q-136 0 -232.5 96.5t-96.5 232.5z" />
<glyph unicode="&#xf03e;" horiz-adv-x="2194" d="M0 37v1389q0 75 53.5 129t129.5 54h1828q75 0 129 -54t54 -129v-1389q0 -75 -53.5 -129t-129.5 -54h-1828q-75 0 -129 53.5t-54 129.5zM146 37q0 -15 11 -26t26 -11h1828q15 0 26 11t11 26v1389q0 15 -11 26t-26 11h-1828q-15 0 -26 -11t-11 -26v-1389zM293 146v220 l365 365l183 -182l585 585l476 -476v-512h-1609zM293 1097.5q0 91.5 64 155.5t155 64t155 -64t64 -155.5t-64 -155.5t-155 -64t-155 64t-64 155.5z" />
<glyph unicode="&#xf040;" d="M0 -146v475l951 951l475 -475l-951 -951h-475zM146 146h147v-146h122l104 104l-269 269l-104 -104v-123zM341 439q0 -25 25 -25q11 0 19 8l620 619q8 9 8 20q0 25 -26 25q-11 0 -19 -8l-619 -620q-8 -8 -8 -19zM1024 1353l190 189q41 43 103 43q61 0 104 -43l268 -268 q42 -45 42 -104q0 -61 -42 -103l-190 -189z" />
<glyph unicode="&#xf041;" horiz-adv-x="1170" d="M0 1024q0 242 171.5 413.5t413.5 171.5t413.5 -171.5t171.5 -413.5q0 -125 -37 -205l-416 -884q-18 -38 -54.5 -59.5t-77.5 -21.5t-77 21.5t-53 59.5l-417 884q-38 80 -38 205zM293 1024q0 -121 85.5 -207t206.5 -86t207 86t86 207t-86 207t-207 86t-206.5 -86 t-85.5 -207z" />
<glyph unicode="&#xf042;" d="M0 731.5q0 238.5 117.5 440.5t319.5 319.5t441 117.5t440.5 -117.5t319 -319.5t117.5 -440.5t-117.5 -440.5t-319 -319.5t-440.5 -117.5t-441 117.5t-319.5 319.5t-117.5 440.5zM293 731.5q0 -118.5 46 -226.5t125 -187t187 -125.5t227 -46.5v1171q-119 0 -227 -46.5 t-187 -125.5t-125 -187t-46 -226.5z" />
<glyph unicode="&#xf043;" horiz-adv-x="1170" d="M0 585q0 166 93 314q7 10 71.5 103.5t115 173t113.5 203.5t95 230q10 34 38.5 53.5t58.5 19.5t59 -19.5t38 -53.5q32 -106 95 -230t114 -203.5t115.5 -172.5t71.5 -104q92 -145 92 -314q0 -242 -171.5 -413.5t-413.5 -171.5t-413.5 171.5t-171.5 413.5zM293 439 q0 -61 42.5 -103.5t103 -42.5t103.5 42.5t43 103.5q0 41 -23 79q-1 1 -17.5 25.5t-29 43.5t-28.5 50.5t-24 57.5q-5 18 -24.5 18t-23.5 -18q-8 -26 -24 -57.5t-28.5 -50.5t-29 -43.5t-18.5 -25.5q-23 -38 -22 -79z" />
<glyph unicode="&#xf044;" horiz-adv-x="2048" d="M0 329v951q0 136 96.5 232.5t232.5 96.5h951q72 0 134 -28q17 -8 20 -27t-10 -33l-56 -56q-16 -16 -37 -9q-26 7 -51 7h-951q-75 0 -129 -54t-54 -129v-951q0 -75 54 -129t129 -54h951q75 0 129 54t54 129v144q0 15 10 25l73 73q17 17 40 8t23 -33v-217 q0 -136 -96.5 -232.5t-232.5 -96.5h-951q-136 0 -232.5 96.5t-96.5 232.5zM731 293v329l768 768l330 -329l-768 -768h-330zM841 512h110v-110h64l132 133l-173 174l-133 -133v-64zM1079 786.5q18 -18.5 38 0.5l400 400q19 20 0.5 38t-37.5 -1l-400 -400q-19 -19 -1 -37.5z M1573 1463l105 105q32 32 77.5 32t77.5 -32l174 -174q32 -32 32 -77.5t-32 -77.5l-105 -105z" />
<glyph unicode="&#xf045;" horiz-adv-x="1901" d="M0 329v951q0 136 96.5 232.5t232.5 96.5h292q15 0 25.5 -11t10.5 -25q0 -31 -30 -37q-88 -30 -152 -69q-11 -5 -18 -4h-128q-75 0 -129 -54t-54 -129v-951q0 -75 54 -129t129 -54h951q75 0 129 54t54 129v245q0 22 20 33q32 15 62 42q18 18 40 9q24 -10 24 -33v-296 q0 -136 -96.5 -232.5t-232.5 -96.5h-951q-136 0 -232.5 96.5t-96.5 232.5zM293 805q0 56 4 104t16 102.5t32 100.5t53.5 93.5t78 84.5t108 70t142.5 55.5t182.5 35t224.5 12.5h183v219q0 48 44 68q15 6 29 5q30 0 51 -21l439 -439q22 -22 22 -51.5t-22 -51.5l-439 -439 q-21 -22 -51 -22q-14 0 -29 6q-45 19 -44 68v219h-183q-369 0 -501 -150q-136 -157 -84 -540q3 -26 -23 -39q-9 -2 -14 -2q-18 0 -30 14q-11 16 -23.5 35.5t-45 78.5t-56.5 114t-44 130.5t-20 139.5z" />
<glyph unicode="&#xf046;" horiz-adv-x="1901" d="M0 329v951q0 136 96.5 232.5t232.5 96.5h951q72 0 134 -28q17 -8 20 -27t-10 -33l-56 -56q-11 -11 -26 -11q-3 0 -11 2q-26 7 -51 7h-951q-75 0 -129 -54t-54 -129v-951q0 -75 54 -129t129 -54h951q75 0 129 54t54 129v290q0 15 10 26l73 73q11 11 27 11q7 0 13 -3 q23 -9 23 -33v-364q0 -136 -96.5 -232.5t-232.5 -96.5h-951q-136 0 -232.5 96.5t-96.5 232.5zM294 877.5q0 37.5 27 65.5l126 126q27 27 65 27t65 -27l301 -301l739 739q27 27 65 27.5t65 -27.5l126 -125q27 -27 27 -65.5t-27 -65.5l-930 -930q-27 -27 -65 -27t-65 27 l-492 492q-27 27 -27 64.5z" />
<glyph unicode="&#xf047;" horiz-adv-x="2048" d="M0 731.5q0 29.5 22 51.5l292 292q22 22 51.5 22t51.5 -21.5t22 -51.5v-146h439v439h-147q-30 0 -51.5 21.5t-21.5 51t22 51.5l293 293q22 22 51.5 21.5t50.5 -21.5l293 -293q22 -22 22 -51.5t-22 -51t-51 -21.5h-147v-439h439v146q0 30 22 51.5t51.5 21.5t51.5 -22 l292 -292q22 -22 22 -51.5t-22 -51.5l-292 -293q-22 -22 -51.5 -21.5t-51.5 22t-22 51.5v146h-439v-439h147q30 0 51.5 -21.5t21.5 -51.5t-22 -51l-293 -293q-22 -22 -51.5 -22t-50.5 22l-293 293q-22 22 -22 51.5t22 51t51 21.5h147v439h-439v-146q0 -30 -22 -51.5 t-51.5 -21.5t-51.5 21l-292 293q-22 22 -22 51.5z" />
<glyph unicode="&#xf048;" horiz-adv-x="1170" d="M0 -73v1609q0 30 21.5 51.5t51.5 21.5h146q30 0 52 -21.5t22 -51.5v-775q5 13 14 22l812 811q22 22 36.5 15t14.5 -36v-1683q0 -30 -14.5 -36.5t-36.5 15.5l-812 811q-10 10 -14 22v-775q0 -30 -22 -51.5t-52 -21.5h-146q-30 0 -51.5 21.5t-21.5 51.5z" />
<glyph unicode="&#xf049;" horiz-adv-x="2048" d="M0 -73v1609q0 30 21.5 51.5t51.5 21.5h146q30 0 52 -21.5t22 -51.5v-775q5 13 14 22l812 811q22 22 36.5 15t14.5 -36v-812q5 13 15 22l812 811q22 22 36.5 15t14.5 -36v-1683q0 -30 -15 -36.5t-36 15.5l-812 811q-10 10 -15 22v-812q0 -30 -14.5 -36.5t-36.5 15.5 l-812 811q-10 10 -14 22v-775q0 -30 -22 -51.5t-52 -21.5h-146q-30 0 -51.5 21.5t-21.5 51.5z" />
<glyph unicode="&#xf04a;" horiz-adv-x="1901" d="M139 731.5q0 29.5 22 51.5l812 811q22 22 36.5 15t14.5 -36v-812q6 13 15 22l811 811q22 22 37 15t15 -36v-1683q0 -30 -15 -36.5t-37 15.5l-811 811q-9 10 -15 22v-812q0 -30 -15 -36.5t-36 15.5l-812 811q-22 22 -22 51.5z" />
<glyph unicode="&#xf04b;" horiz-adv-x="1609" d="M0 -110v1683q0 30 19 41t45 -4l1518 -843q26 -15 26 -35.5t-26 -35.5l-1518 -843q-26 -15 -45 -3.5t-19 40.5z" />
<glyph unicode="&#xf04c;" d="M0 -73v1609q0 30 21.5 51.5t51.5 21.5h585q30 0 51.5 -21.5t21.5 -51.5v-1609q0 -30 -21.5 -51.5t-51.5 -21.5h-585q-30 0 -51.5 21.5t-21.5 51.5zM1024 -73v1609q0 30 21.5 51.5t51.5 21.5h585q30 0 51.5 -21.5t21.5 -51.5v-1609q0 -30 -21.5 -51.5t-51.5 -21.5h-585 q-30 0 -51.5 21.5t-21.5 51.5z" />
<glyph unicode="&#xf04d;" d="M0 -73v1609q0 30 21.5 51.5t51.5 21.5h1609q30 0 51.5 -21.5t21.5 -51.5v-1609q0 -30 -21.5 -51.5t-51.5 -21.5h-1609q-30 0 -51.5 21.5t-21.5 51.5z" />
<glyph unicode="&#xf04e;" horiz-adv-x="1901" d="M0 -110v1683q0 30 15 36.5t36 -15.5l812 -811q9 -9 15 -22v812q0 30 14.5 36.5t36.5 -15.5l812 -811q22 -22 21.5 -51.5t-21.5 -51.5l-812 -811q-22 -22 -36.5 -15t-14.5 36v812q-6 -11 -15 -22l-812 -811q-22 -22 -36.5 -15t-14.5 36z" />
<glyph unicode="&#xf050;" horiz-adv-x="2048" d="M0 -110v1683q0 30 15 36.5t36 -15.5l812 -811q9 -9 15 -22v812q0 30 14.5 36.5t36.5 -15.5l812 -811q9 -9 14 -22v775q0 30 22 51.5t52 21.5h146q30 0 51.5 -21.5t21.5 -51.5v-1609q0 -30 -21.5 -51.5t-51.5 -21.5h-146q-30 0 -52 21.5t-22 51.5v775q-6 -11 -14 -22 l-812 -811q-22 -22 -36.5 -15t-14.5 36v812q-6 -11 -15 -22l-812 -811q-22 -22 -36.5 -15t-14.5 36z" />
<glyph unicode="&#xf051;" horiz-adv-x="1170" d="M0 -110v1683q0 30 15 36.5t36 -15.5l812 -811q9 -9 15 -22v775q0 30 21.5 51.5t51.5 21.5h146q30 0 51.5 -21.5t21.5 -51.5v-1609q0 -30 -21.5 -51.5t-51.5 -21.5h-146q-30 0 -51.5 21.5t-21.5 51.5v775q-6 -11 -15 -22l-812 -811q-22 -22 -36.5 -15t-14.5 36z" />
<glyph unicode="&#xf052;" horiz-adv-x="1757" d="M1 73v293q0 30 22 51.5t51 21.5h1609q30 0 52 -22t22 -51v-293q0 -30 -22 -51.5t-52 -21.5h-1609q-30 0 -51.5 21.5t-21.5 51.5zM1 600q-7 15 15 37l811 811q22 22 52 22t51 -22l812 -811q22 -22 15 -37t-37 -15h-1682q-30 0 -37 15z" />
<glyph unicode="&#xf053;" horiz-adv-x="1316" d="M61 805q0 61 42 104l745 744q42 42 103.5 42t103.5 -42l86 -86q42 -42 42 -103.5t-42 -103.5l-556 -555l556 -555q42 -43 42 -103.5t-42 -103.5l-86 -85q-42 -42 -103.5 -42t-103.5 42l-745 744q-42 42 -42 103z" />
<glyph unicode="&#xf054;" horiz-adv-x="1316" d="M134 146q0 61 42 103l555 556l-555 554q-42 45 -42 104q0 61 42 103l87 85q41 43 102.5 43.5t103.5 -43.5l745 -744q42 -41 42 -102q0 -59 -42 -104l-745 -744q-42 -42 -103 -42.5t-103 42.5l-87 85q-42 45 -42 104z" />
<glyph unicode="&#xf055;" d="M0 731.5q0 238.5 117.5 440.5t319.5 319.5t441 117.5t440.5 -117.5t319 -319.5t117.5 -440.5t-117.5 -440.5t-319 -319.5t-440.5 -117.5t-441 117.5t-319.5 319.5t-117.5 440.5zM366 658q0 -30 21.5 -51.5t51.5 -21.5h292v-292q0 -30 22 -52t52 -22h146q30 0 51.5 22 t21.5 52v292h293q30 0 51.5 21.5t21.5 51.5v147q0 30 -22 51.5t-51 21.5h-293v292q0 30 -21.5 51.5t-51.5 21.5h-146q-30 0 -52 -21.5t-22 -51.5v-292h-292q-30 0 -51.5 -22t-21.5 -51v-147z" />
<glyph unicode="&#xf056;" d="M0 731.5q0 238.5 117.5 440.5t319.5 319.5t441 117.5t440.5 -117.5t319 -319.5t117.5 -440.5t-117.5 -440.5t-319 -319.5t-440.5 -117.5t-441 117.5t-319.5 319.5t-117.5 440.5zM366 658q0 -30 21.5 -51.5t51.5 -21.5h878q30 0 51.5 21.5t21.5 51.5v147q0 30 -22 51.5 t-51 21.5h-878q-30 0 -51.5 -22t-21.5 -51v-147z" />
<glyph unicode="&#xf057;" d="M0 731.5q0 238.5 117.5 440.5t319.5 319.5t441 117.5t440.5 -117.5t319 -319.5t117.5 -440.5t-117.5 -440.5t-319 -319.5t-440.5 -117.5t-441 117.5t-319.5 319.5t-117.5 440.5zM442 473q0 -31 22 -52l103 -103q22 -22 52 -22t52 22l207 207l207 -207q22 -22 51 -22 q31 0 53 22l102 103q22 21 22 52q0 30 -22 52l-206 206l206 207q22 22 22 52q0 31 -22 52l-102 103q-22 22 -53 22q-30 0 -51 -22l-207 -207l-207 207q-22 22 -52 22q-31 0 -52 -22l-103 -103q-22 -22 -22 -52t22 -52l207 -207l-207 -206q-22 -22 -22 -52z" />
<glyph unicode="&#xf058;" d="M0 731.5q0 238.5 117.5 440.5t319.5 319.5t441 117.5t440.5 -117.5t319 -319.5t117.5 -440.5t-117.5 -440.5t-319 -319.5t-440.5 -117.5t-441 117.5t-319.5 319.5t-117.5 440.5zM288 710q0 -31 21 -52l413 -413q22 -22 52 -22q31 0 52 22l621 620q20 21 20 52 q0 32 -20 52l-104 103q-22 22 -51.5 22t-51.5 -22l-466 -465l-259 258q-22 22 -51.5 22t-50.5 -22l-104 -103q-21 -21 -21 -52z" />
<glyph unicode="&#xf059;" d="M0 731.5q0 238.5 117.5 440.5t319.5 319.5t441 117.5t440.5 -117.5t319 -319.5t117.5 -440.5t-117.5 -440.5t-319 -319.5t-440.5 -117.5t-441 117.5t-319.5 319.5t-117.5 440.5zM439 923.5q0 -3.5 1 -13t3.5 -13t6.5 -9.5t10 -8t15 -2h220q16 0 26 10t10 26q0 14 13 31 q22 35 58 57t76 22q45 0 95 -24.5t50 -65.5q0 -38 -30.5 -66.5t-72.5 -50.5t-85 -47.5t-73.5 -72.5t-30.5 -112v-12.5v-15t1.5 -13t3.5 -13t6 -9t10.5 -8t15.5 -2.5h219q19 0 27.5 12t9.5 28t15.5 37.5t42.5 36.5q69 38 80 45q71 50 113 123.5t42 156.5q0 111 -67 196.5 t-165.5 127.5t-207 42t-206.5 -42t-165 -127.5t-67 -196.5v-12.5v-15zM731 183q0 -15 11 -26t26 -11h219q15 0 26 11t11 26v219q0 15 -11 26t-26 11h-219q-15 0 -26 -11t-11 -26v-219z" />
<glyph unicode="&#xf05a;" d="M0 731.5q0 238.5 117.5 440.5t319.5 319.5t441 117.5t440.5 -117.5t319 -319.5t117.5 -440.5t-117.5 -440.5t-319 -319.5t-440.5 -117.5t-441 117.5t-319.5 319.5t-117.5 440.5zM585 183q0 -16 10.5 -26.5t26.5 -10.5h512q16 0 26 10.5t10 26.5v73q0 16 -10 26.5 t-26 10.5h-110v548q0 16 -10.5 26.5t-26.5 10.5h-365q-16 0 -26.5 -10.5t-10.5 -26.5v-73q0 -16 10.5 -26.5t26.5 -10.5h109v-438h-109q-16 0 -26.5 -10.5t-10.5 -26.5v-73zM731 1061q0 -16 10.5 -26.5t26.5 -10.5h219q16 0 26.5 10.5t10.5 26.5v219q0 16 -10.5 26.5 t-26.5 10.5h-219q-16 0 -26.5 -10.5t-10.5 -26.5v-219z" />
<glyph unicode="&#xf05b;" d="M0 658v147q0 30 21.5 51.5t51.5 21.5h164q42 184 176 318t318 177v163q0 30 22 51.5t52 21.5h146q30 0 51.5 -21.5t21.5 -51.5v-163q184 -42 318.5 -176.5t176.5 -318.5h163q30 0 51.5 -21.5t21.5 -51.5v-147q0 -30 -21.5 -51.5t-51.5 -21.5h-163q-42 -184 -176.5 -318 t-318.5 -177v-163q0 -30 -21.5 -51.5t-51.5 -21.5h-146q-30 0 -52 21.5t-22 51.5v163q-184 42 -318 176.5t-176 318.5h-164q-30 0 -51.5 22t-21.5 51zM387 585q37 -123 129 -215t215 -129v125q0 30 22 51.5t52 21.5h146q30 0 51.5 -22t21.5 -51v-125q123 37 215 129t129 215 h-125q-30 0 -51.5 22t-21.5 51v147q0 30 22 51.5t51 21.5h125q-37 123 -129 215t-215 129v-125q0 -30 -21.5 -51.5t-51.5 -21.5h-146q-30 0 -52 21.5t-22 51.5v125q-123 -37 -215 -129t-129 -215h125q30 0 51.5 -22t21.5 -51v-147q0 -30 -21.5 -51.5t-51.5 -21.5h-125z" />
<glyph unicode="&#xf05c;" d="M0 731.5q0 238.5 117.5 440.5t319.5 319.5t441 117.5t440.5 -117.5t319 -319.5t117.5 -440.5t-117.5 -440.5t-319 -319.5t-440.5 -117.5t-441 117.5t-319.5 319.5t-117.5 440.5zM293 731.5q0 -118.5 46 -226.5t125 -187t187 -125.5t227 -46.5t227 46.5t186.5 125.5 t125 187t46.5 226.5t-46.5 226.5t-125 187t-186.5 125.5t-227 46.5t-227 -46.5t-187 -125.5t-125 -187t-46 -226.5zM469.5 512.5q0.5 30.5 20.5 50.5l168 168l-168 168q-21 21 -20.5 52t20.5 51l117 117q21 21 51.5 20.5t51.5 -20.5l168 -168l168 168q21 21 51.5 20.5 t51.5 -20.5l116 -117q21 -21 21 -51.5t-21 -51.5l-168 -168l168 -168q21 -20 21 -51t-21 -51l-116 -117q-21 -21 -52 -21t-51 21l-168 168l-168 -168q-21 -21 -52 -21t-51 21l-117 117q-21 21 -20.5 51.5z" />
<glyph unicode="&#xf05d;" d="M0 731.5q0 238.5 117.5 440.5t319.5 319.5t441 117.5t440.5 -117.5t319 -319.5t117.5 -440.5t-117.5 -440.5t-319 -319.5t-440.5 -117.5t-441 117.5t-319.5 319.5t-117.5 440.5zM293 731.5q0 -118.5 46 -226.5t125 -187t187 -125.5t227 -46.5t227 46.5t186.5 125.5 t125 187t46.5 226.5t-46.5 226.5t-125 187t-186.5 125.5t-227 46.5t-227 -46.5t-187 -125.5t-125 -187t-46 -226.5zM396.5 731.5q0.5 30.5 20.5 51.5l117 116q21 21 51.5 21t51.5 -21l168 -168l314 315q21 21 51.5 20.5t51.5 -20.5l116 -117q21 -20 21 -51t-21 -52 l-365 -365l-117 -117q-21 -21 -51.5 -21t-51.5 21l-116 117l-220 219q-21 21 -20.5 51.5z" />
<glyph unicode="&#xf05e;" d="M0 731.5q0 238.5 117.5 440.5t319.5 319.5t441 117.5t440.5 -117.5t319 -319.5t117.5 -440.5t-117.5 -440.5t-319 -319.5t-440.5 -117.5t-441 117.5t-319.5 319.5t-117.5 440.5zM293 731q0 -159 81 -297l801 801q-138 81 -297 82q-119 0 -227 -46.5t-187 -125.5 t-125 -187t-46 -227zM581 227q138 -81 297 -81q119 0 227 46.5t186.5 125.5t125 186.5t46.5 226.5q0 159 -81 298z" />
<glyph unicode="&#xf060;" d="M73 658q0 59 42 104l744 743q43 43 104 44q59 0 103 -44l86 -84q43 -43 43 -104t-43 -104l-335 -335h805q59 0 96 -43t37 -104v-146q0 -61 -37 -103.5t-96 -42.5h-805l335 -336q43 -41 43 -103t-43 -103l-86 -87q-42 -42 -103 -42q-59 0 -104 42l-744 745q-42 42 -42 103 z" />
<glyph unicode="&#xf061;" d="M0 585v146q0 61 37 104t97 43h804l-335 336q-43 41 -43 102.5t43 102.5l86 86q43 43 103 44q61 0 104 -44l744 -744q42 -40 42 -103q0 -62 -42 -104l-744 -744q-45 -42 -104 -42q-58 0 -103 42l-86 86q-43 43 -43 104t43 104l335 335h-804q-59 0 -96.5 43t-37.5 103z" />
<glyph unicode="&#xf062;" horiz-adv-x="1901" d="M61 646q0 61 43 104l744 744q40 42 103 42q62 0 104 -42l744 -744q42 -45 42 -104q0 -58 -42 -103l-86 -86q-43 -43 -104 -43q-62 0 -103 43l-336 335v-805q0 -59 -42.5 -96t-103.5 -37h-146q-61 0 -104 37t-43 96v805l-336 -335q-41 -43 -102.5 -43t-102.5 43l-86 86 q-43 43 -43 103z" />
<glyph unicode="&#xf063;" horiz-adv-x="1901" d="M61 805q0 61 43 104l85 85q45 42 104 43q61 0 102 -43l336 -336v805q0 59 43.5 102.5t103.5 43.5h146q59 0 102.5 -43.5t43.5 -102.5v-805l336 336q42 42 103 43q59 0 104 -43l86 -85q42 -45 42 -104q0 -61 -42 -103l-744 -745q-45 -42 -104 -43q-61 0 -103 43l-744 745 q-43 41 -43 103z" />
<glyph unicode="&#xf064;" horiz-adv-x="2048" d="M0 475q0 227 61 381q185 461 1000 461h256v292q0 30 21.5 51.5t51 21.5t51.5 -21l585 -586q22 -21 22 -51t-22 -51l-585 -586q-22 -22 -51.5 -21.5t-51 22t-21.5 51.5v292h-256q-112 0 -201 -6.5t-176 -24.5t-152 -48.5t-121 -79.5t-91 -115.5t-55 -158t-20 -207.5 q0 -63 5 -140q0 -7 3 -27t3 -30q0 -17 -9.5 -28.5t-27.5 -11.5t-32 19q-8 10 -14.5 25t-15 34.5t-12.5 27.5q-145 326 -145 515z" />
<glyph unicode="&#xf065;" d="M0 -73v512q0 30 21.5 51.5t51.5 21.5t52 -22l164 -164l380 379q11 11 26 11.5t26 -11.5l130 -130q12 -12 12 -26.5t-12 -26.5l-379 -379l165 -165q22 -22 21.5 -51.5t-22 -51t-51.5 -21.5h-512q-30 0 -51.5 21.5t-21.5 51.5zM893 914q0 15 11 27l379 379l-164 165 q-22 22 -22 51.5t22 51t51 21.5h512q30 0 51.5 -21.5t21.5 -51.5v-512q0 -30 -21.5 -51.5t-51 -21.5t-51.5 22l-165 164l-379 -379q-11 -11 -26 -11.5t-27 11.5l-130 130q-11 11 -11 26z" />
<glyph unicode="&#xf066;" d="M15 36q0 15 11 27l380 379l-165 165q-22 22 -22 51.5t22 51t52 21.5h512q30 0 51.5 -21.5t21.5 -51.5v-512q0 -30 -22 -51.5t-51.5 -21.5t-51.5 22l-164 164l-380 -379q-11 -11 -26 -11t-26 11l-131 130q-11 11 -11 26zM878 805v512q0 30 21.5 51.5t51.5 21.5t51 -22 l165 -165l379 380q11 11 26 11t27 -11l130 -130q12 -12 12 -27t-12 -26l-379 -379l164 -165q22 -22 22 -51.5t-21.5 -51.5t-51.5 -22h-512q-30 0 -51.5 22t-21.5 52z" />
<glyph unicode="&#xf067;" horiz-adv-x="1609" d="M0 695v219q0 46 32 78t78 32h475v475q0 46 32 78t78 32h219q46 0 78 -32t32 -78v-475h475q46 0 78 -32t32 -78v-219q0 -46 -32 -78t-78 -32h-475v-475q0 -46 -32 -78t-78 -32h-219q-46 0 -78 32t-32 78v475h-475q-46 0 -78 32t-32 78z" />
<glyph unicode="&#xf068;" horiz-adv-x="1609" d="M0 695v219q0 46 32 78t78 32h1389q46 0 78 -32t32 -78v-219q0 -46 -32 -78t-78 -32h-1389q-46 0 -78 32t-32 78z" />
<glyph unicode="&#xf069;" horiz-adv-x="1901" d="M139.5 467q15.5 59 68.5 88l304 176l-304 176q-53 30 -68 89t14 111l73 126q30 53 89 68.5t111 -14.5l304 -175v351q0 59 43.5 102.5t103.5 43.5h146q59 0 102.5 -43.5t43.5 -102.5v-351l304 175q53 30 112 14.5t88 -68.5l73 -126q30 -53 14.5 -111.5t-67.5 -88.5 l-304 -176l304 -176q53 -30 68 -88.5t-15 -111.5l-73 -125q-30 -53 -88.5 -68.5t-111.5 14.5l-304 175v-351q0 -59 -43.5 -102.5t-102.5 -43.5h-146q-59 0 -103 43.5t-44 102.5v351l-304 -175q-53 -30 -111.5 -14.5t-88.5 68.5l-73 125q-30 53 -14.5 112z" />
<glyph unicode="&#xf06a;" d="M0 731.5q0 238.5 117.5 440.5t319.5 319.5t441 117.5t440.5 -117.5t319 -319.5t117.5 -440.5t-117.5 -440.5t-319 -319.5t-440.5 -117.5t-441 117.5t-319.5 319.5t-117.5 440.5zM713 1287l20 -710q0 -11 11 -19.5t27 -8.5h212q16 0 27 8.5t12 19.5l20 710q0 14 -11 20 q-11 9 -28 10h-251q-16 0 -27 -10q-11 -7 -12 -20zM731 184q0 -15 11.5 -26.5t26.5 -11.5h220q15 0 25 11t10 27v217q0 16 -10.5 27t-24.5 11h-220q-15 0 -26.5 -11.5t-11.5 -26.5v-217z" />
<glyph unicode="&#xf06b;" d="M0 622v365q0 15 11 26t26 11h502q-106 0 -181 75t-75 181t75 181t181 75q123 0 192 -88l147 -189l146 189q69 88 192 88q106 0 181 -75t75 -181t-75 -181t-181 -75h503q15 0 25.5 -11t10.5 -26v-365q0 -16 -11 -25.5t-30.5 -12t-37 -2.5t-39.5 1.5t-28 1.5v-475 q0 -46 -32 -78t-78 -32h-1243q-46 0 -78 32t-32 78v475q-6 0 -28 -1.5t-39 -1.5t-36.5 2.5t-31 12t-11.5 25.5zM430 1280q0 -46 31.5 -78t77.5 -32h223l-144 184q-27 35 -79 36q-46 0 -77.5 -32t-31.5 -78zM695 206q0 -29 21 -44.5t52 -15.5h219q31 0 52.5 15.5t21.5 44.5 v818h-366v-818zM994 1170h222q46 0 78 32t32 78t-32 78t-78 32q-51 0 -79 -36z" />
<glyph unicode="&#xf06c;" horiz-adv-x="2048" d="M0 138q0 40 35.5 84t77.5 75t77.5 64t35.5 55q0 5 -16 43.5t-18 50.5q-10 58 -10 119q0 131 49.5 251t136 211t195 159t232.5 109q63 21 166 29.5t205.5 10t204 6.5t186.5 27.5t130 64.5l33.5 33.5t34 32.5t31 23t41.5 18t50 5q45 0 80.5 -52.5t54 -128t27.5 -142 t9 -109.5q0 -109 -23 -220q-53 -256 -211 -438t-408 -306q-245 -123 -501 -124q-169 0 -327 54q-17 6 -100.5 48t-109.5 42q-18 0 -45 -36.5t-51.5 -80t-60 -80t-68.5 -36.5q-34 0 -58 12.5t-35.5 27.5t-31.5 48q-2 5 -6.5 13t-6.5 11t-3.5 10.5t-1.5 15.5zM439 512 q0 -30 21.5 -51.5t51.5 -21.5q27 0 51 22q31 27 85 80.5t77 75.5q157 142 307 201.5t358 59.5q30 0 51.5 21.5t21.5 51.5t-22 51.5t-51 21.5q-197 0 -364 -56.5t-296.5 -153t-268.5 -251.5q-22 -24 -22 -51z" />
<glyph unicode="&#xf06d;" horiz-adv-x="1609" d="M0 -183q0 15 11 26t26 11h1536q15 0 25.5 -11t10.5 -26v-73q0 -15 -11 -26t-25 -11h-1536q-15 0 -26 11t-11 26v73zM293 731q0 89 28 164.5t73 129t100 101t109.5 88.5t100 82t73.5 93t28 110q0 107 -76 256l4 -1l-2 1q103 -47 183 -94.5t158.5 -114t130 -140t83 -172 t31.5 -210.5q0 -89 -28 -164.5t-73.5 -128.5t-100 -100.5t-109.5 -88.5t-100 -82.5t-73 -93.5t-28 -110q0 -110 76 -256l-4 1l1 -1q-103 47 -183 95t-158.5 114t-130 140t-82.5 172t-31 210z" />
<glyph unicode="&#xf06e;" horiz-adv-x="2048" d="M0 658q0 39 23 79q160 262 430 421t571 159t571 -159t430 -421q23 -40 23 -79t-23 -79q-160 -263 -430 -421t-571 -158t-571 159t-430 420q-23 40 -23 79zM146 658q152 -234 381.5 -373t496.5 -139t496.5 139t381.5 373q-174 270 -436 404q70 -119 70 -257 q0 -211 -150.5 -361.5t-361.5 -150.5t-361.5 150t-150.5 362q0 138 70 257q-262 -134 -436 -404zM677 805q0 -23 16 -39t38.5 -16t38.5 16t16 39q0 98 70 167.5t168 69.5q23 0 39 16t16 39t-16 39t-39 16q-143 0 -245 -102.5t-102 -244.5z" />
<glyph unicode="&#xf070;" horiz-adv-x="2048" d="M0 658q0 44 23 79q175 269 434.5 424.5t566.5 155.5q102 0 206 -20l61 111q11 18 32 18q6 0 21 -6.5t35.5 -17.5t37.5 -21.5t36 -21t22 -13.5q19 -12 19 -31q0 -8 -1 -10q-120 -215 -360 -647t-362 -648l-56 -101q-11 -18 -32 -19q-14 0 -153 80q-18 11 -18 32 q0 14 50 100q-163 74 -301 197.5t-238 279.5q-23 35 -23 79zM146 658q191 -294 488 -428l89 161q-99 72 -155 181.5t-56 232.5q0 138 70 257q-262 -134 -436 -404zM677 805q0 -23 16 -39t38.5 -16t38.5 16t16 39q0 98 70 167.5t168 69.5q23 0 39 16t16 39t-16 39t-39 16 q-143 0 -245 -102.5t-102 -244.5zM1024 0l85 151q242 21 448 156.5t345 350.5q-131 205 -323 336l72 128q109 -73 209 -174.5t165 -210.5q23 -39 23 -79t-23 -79q-45 -73 -124 -165q-171 -197 -397 -305.5t-480 -108.5zM1207 327l320 574q9 -51 9 -96q0 -159 -90.5 -290 t-238.5 -188z" />
<glyph unicode="&#xf071;" horiz-adv-x="2048" d="M18 70l878 1609q19 35 53.5 55.5t74.5 20.5t74.5 -20.5t53.5 -55.5l878 -1609q40 -72 -3 -144q-19 -33 -52.5 -52.5t-72.5 -19.5h-1756q-39 0 -72.5 19.5t-52.5 52.5q-42 72 -3 144zM859 1134l20 -523q0 -11 11.5 -18.5t27.5 -7.5h211q16 0 27 7.5t12 18.5l21 525 q0 14 -12 22q-15 13 -27 12h-252q-13 0 -27 -12q-11 -8 -12 -24zM878 184q0 -16 10.5 -27t25.5 -11h220q15 0 25.5 11t10.5 27v217q0 16 -10.5 27t-25.5 11h-220q-15 0 -25.5 -11t-10.5 -27v-217z" />
<glyph unicode="&#xf072;" horiz-adv-x="1609" d="M0 547q0 16 10 27l73 74q10 10 26.5 10t288.5 -77l280 280l-657 313q-21 9 -21 33q0 16 10 26l73 73q10 10 27 11q5 0 7 -2l852 -163l274 274q170 170 270 171q37 0 60.5 -23.5t23.5 -60.5q0 -99 -171 -270l-274 -274l163 -852l2 -7q0 -16 -11 -27l-73 -73 q-10 -10 -26 -10q-24 0 -33 21l-313 657l-280 -280q78 -272 77.5 -288t-10.5 -27l-73 -73q-10 -10 -26 -10q-21 0 -32 18l-178 320l-320 177q-19 10 -19 32z" />
<glyph unicode="&#xf073;" horiz-adv-x="1901" d="M0 -146v1463q0 59 43.5 102.5t102.5 43.5h147v110q0 75 53.5 128.5t128.5 53.5h74q75 0 128.5 -53.5t53.5 -128.5v-110h439v110q0 75 54 128.5t129 53.5h73q75 0 129 -53.5t54 -128.5v-110h146q59 0 103 -43.5t44 -102.5v-1463q0 -59 -43.5 -103t-103.5 -44h-1609 q-59 0 -102.5 43.5t-43.5 103.5zM146 -146h329v329h-329v-329zM146 256h329v366h-329v-366zM146 695h329v329h-329v-329zM439 1243q0 -15 11 -25.5t25 -10.5h74q15 0 25.5 10.5t10.5 25.5v330q0 15 -11 25.5t-25 10.5h-74q-15 0 -25.5 -11t-10.5 -25v-330zM549 -146h365v329 h-365v-329zM549 256h365v366h-365v-366zM549 695h365v329h-365v-329zM987 -146h366v329h-366v-329zM987 256h366v366h-366v-366zM987 695h366v329h-366v-329zM1317 1243q0 -15 10.5 -25.5t25.5 -10.5h73q15 0 26 10.5t11 25.5v330q0 15 -11 25.5t-26 10.5h-73 q-15 0 -25.5 -11t-10.5 -25v-330zM1426 -146h329v329h-329v-329zM1426 256h329v366h-329v-366zM1426 695h329v329h-329v-329z" />
<glyph unicode="&#xf074;" horiz-adv-x="2048" d="M0 183v219q0 16 10.5 26.5t26.5 10.5h256q55 0 99.5 17t78.5 51.5t58 70.5t52 88q37 71 89 196q33 75 56.5 126.5t61.5 120t73 114.5t84.5 95t103 78t122 48t146.5 19h292v219q0 16 10.5 26.5t26.5 10.5q14 0 27 -12l365 -364q10 -10 10 -26t-10 -27l-366 -365 q-10 -10 -26 -11q-15 0 -26 11t-11 26v219h-292q-55 0 -99.5 -17t-79 -51.5t-58.5 -70.5t-51 -88q-37 -71 -90 -196q-33 -75 -56.5 -126.5t-61.5 -120t-73 -114t-84.5 -95t-103 -78.5t-122 -48t-145.5 -19h-256q-16 0 -26.5 10.5t-10.5 26.5zM0 1207v219q0 16 10.5 26.5 t26.5 10.5h256q285 0 468 -257q-69 -105 -156 -312q-25 51 -42.5 82.5t-46.5 72.5t-58 64.5t-72 40t-93 16.5h-256q-16 0 -26.5 10.5t-10.5 26.5zM849 403q67 106 156 312q25 -51 42 -82.5t46 -72.5t58.5 -64.5t72 -40t93.5 -16.5h292v219q0 16 10.5 26.5t26.5 10.5 q14 0 27 -12l365 -364q10 -10 10 -26t-10 -27l-366 -365q-10 -10 -26 -11q-15 0 -26 11t-11 26v219q-37 0 -97.5 -0.5t-92.5 -1t-83 1t-81 5.5t-73.5 12t-72 21.5t-66 33t-67.5 45.5t-63 61t-64 79z" />
<glyph unicode="&#xf075;" horiz-adv-x="2048" d="M0 731q0 149 81 284.5t218.5 233.5t327 156t397.5 58q279 0 514.5 -98t372.5 -266.5t137 -367t-137 -367.5t-372.5 -266.5t-514.5 -97.5q-80 0 -166 9q-226 -200 -525 -276q-56 -16 -131 -26q-19 -2 -34.5 10.5t-20.5 33.5v1q-3 5 0 14t2.5 11t5 11t6.5 10.5t8 9.5t9 10 q8 9 35.5 39.5t39.5 43.5t35.5 45t37 58.5t31 67.5t29.5 87q-179 102 -282.5 251.5t-103.5 320.5z" />
<glyph unicode="&#xf076;" d="M0 658v147q0 30 21.5 51.5t51.5 21.5h439q30 0 51.5 -22t21.5 -51v-147q0 -59 27 -102.5t61 -65t81 -34.5t73.5 -15t50.5 -2t50 2t73 15t81.5 34.5t61 65t26.5 102.5v147q0 30 22 51.5t51 21.5h439q30 0 51.5 -21.5t21.5 -51.5v-147q0 -230 -112.5 -413.5t-313 -287 t-452 -103.5t-452 103.5t-313 287.5t-112.5 413zM0 1097v439q0 30 21.5 51.5t51.5 21.5h439q30 0 51.5 -21.5t21.5 -51.5v-439q0 -30 -21.5 -51.5t-51.5 -21.5h-439q-30 0 -51.5 21.5t-21.5 51.5zM1170 1097v439q0 30 22 51.5t51 21.5h439q30 0 51.5 -21.5t21.5 -51.5v-439 q0 -30 -21.5 -51.5t-51.5 -21.5h-439q-30 0 -51.5 21.5t-21.5 51.5z" />
<glyph unicode="&#xf077;" horiz-adv-x="1901" d="M61 366q0 61 43 104l744 744q42 42 103 42q59 0 104 -42l743 -744q43 -44 43 -104.5t-42 -102.5l-86 -86q-43 -43 -104 -43q-62 0 -103 43l-555 554l-556 -554q-41 -43 -102.5 -43t-102.5 43l-86 86q-43 41 -43 103z" />
<glyph unicode="&#xf078;" horiz-adv-x="1901" d="M61 951q0 61 43 104l85 86q45 42 104 42q61 0 102 -42l556 -556l555 556q42 42 103 42q59 0 104 -42l86 -86q42 -45 42 -104q0 -61 -42 -103l-744 -744q-43 -43 -104 -43q-62 0 -103 43l-744 744q-43 41 -43 103z" />
<glyph unicode="&#xf079;" horiz-adv-x="2194" d="M0 805q0 27 17 46l366 439q22 25 56 25t56 -25l366 -439q17 -19 17 -46q0 -30 -22 -52t-51 -22h-220v-438h658q18 0 29 -13l183 -219q8 -13 8 -24q0 -15 -11 -26t-26 -11h-1097q-9 0 -15.5 2.5t-10.5 8t-6 9t-3 13t-1 13v15v12.5v183v475h-220q-30 0 -51.5 22t-21.5 52z M731 1280q0 15 11 26t26 11h1097q9 0 15.5 -2.5t10.5 -8t6 -9t3.5 -13.5t1.5 -13.5v-14.5v-13v-182v-476h219q30 0 51.5 -21.5t21.5 -51.5q0 -27 -17 -47l-366 -439q-23 -26 -56 -26t-56 26l-365 439q-17 19 -17 47q0 30 21.5 51.5t51.5 21.5h219v439h-658q-18 0 -29 14 l-183 219q-8 10 -8 23z" />
<glyph unicode="&#xf07a;" horiz-adv-x="1901" d="M0 1389.5q0 29.5 21.5 51.5t51.5 22h293q18 0 32.5 -7.5t23 -18t14.5 -28t8.5 -30t6.5 -33.5t5 -29h1373q30 0 51.5 -22t21.5 -52v-585q0 -27 -18.5 -48t-46.5 -25l-1194 -139q1 -8 5.5 -24.5t7 -30.5t2.5 -25q0 -18 -27 -73h1051q30 0 51.5 -22t21.5 -51.5t-21.5 -51.5 t-51.5 -22h-1170q-30 0 -51.5 22t-21.5 51q0 16 12.5 45.5t33.5 68t24 43.5l-203 941h-233q-30 0 -51.5 21.5t-21.5 51zM439 0q0 61 43 103.5t103.5 42.5t103 -42.5t42.5 -103.5t-42.5 -103.5t-103 -42.5t-103.5 42.5t-43 103.5zM1463 0q0 61 43 103.5t103.5 42.5t103 -42.5 t42.5 -103.5t-42.5 -103.5t-103 -42.5t-103.5 42.5t-43 103.5z" />
<glyph unicode="&#xf07b;" horiz-adv-x="1901" d="M0 256v1097q0 105 75.5 180.5t180.5 75.5h366q105 0 180.5 -75.5t75.5 -180.5v-36h768q105 0 180.5 -75.5t75.5 -180.5v-805q0 -105 -75.5 -180.5t-180.5 -75.5h-1390q-105 0 -180.5 75.5t-75.5 180.5z" />
<glyph unicode="&#xf07c;" horiz-adv-x="2194" d="M0 256v1097q0 105 75.5 180.5t180.5 75.5h366q105 0 180.5 -75.5t75.5 -180.5v-36h621q105 0 180.5 -75.5t75.5 -180.5v-183h-950q-107 0 -225 -54.5t-188 -136.5l-385 -453l-6 -7q0 5 -0.5 14.5t-0.5 14.5zM83 64q0 35 36 75l384 453q49 58 137.5 98.5t164.5 40.5h1243 q39 0 69 -15t30 -49q0 -35 -35 -75l-384 -453q-49 -58 -137.5 -98.5t-164.5 -40.5h-1243q-39 0 -69.5 15t-30.5 49z" />
<glyph unicode="&#xf07d;" horiz-adv-x="877" d="M73 73.5q0 29.5 22 51t51 21.5h147v1171h-147q-30 0 -51.5 21.5t-21.5 51t22 51.5l292 293q22 22 52 21.5t51 -21.5l293 -293q22 -22 22 -51.5t-22 -51t-52 -21.5h-146v-1171h146q30 0 52 -21.5t22 -51.5t-22 -51l-293 -293q-22 -22 -51.5 -22t-51.5 22l-292 293 q-22 22 -22 51.5z" />
<glyph unicode="&#xf07e;" horiz-adv-x="2048" d="M0 731.5q0 29.5 22 51.5l292 292q22 22 51.5 22t51.5 -21.5t22 -51.5v-146h1170v146q0 30 22 51.5t51.5 21.5t51.5 -22l292 -292q22 -22 22 -51.5t-22 -51.5l-292 -293q-22 -22 -51.5 -21.5t-51.5 22t-22 51.5v146h-1170v-146q0 -30 -22 -51.5t-51.5 -21.5t-51.5 21 l-292 293q-22 22 -22 51.5z" />
<glyph unicode="&#xf080;" horiz-adv-x="2194" d="M0 37v1389q0 75 53.5 129t129.5 54h1828q75 0 129 -54t54 -129v-1389q0 -75 -53.5 -129t-129.5 -54h-1828q-75 0 -129 53.5t-54 129.5zM146 37q0 -15 11 -26t26 -11h1828q15 0 26 11t11 26v1389q0 15 -11 26t-26 11h-1828q-15 0 -26 -11t-11 -26v-1389zM293 146v439h292 v-439h-292zM731 146v1024h293v-1024h-293zM1170 146v732h293v-732h-293zM1609 146v1171h293v-1171h-293z" />
<glyph unicode="&#xf081;" d="M0 183v1097q0 136 96.5 232.5t232.5 96.5h1097q136 0 232.5 -96.5t96.5 -232.5v-1097q0 -136 -96.5 -232.5t-232.5 -96.5h-1097q-136 0 -232.5 96.5t-96.5 232.5zM293 363q0 -19 16 -29q72 -54 171 -84.5t194 -30.5q149 0 284 67q190 90 292.5 265.5t100.5 387.5v14 q31 25 71.5 72t40.5 70q0 15 -11 25.5t-26 10.5q-6 0 -17 -4q23 39 23 63q0 15 -11 25.5t-26 10.5q-8 0 -19 -5q-69 -39 -111 -50q-74 72 -176 72q-112 0 -188 -82.5t-74 -193.5v-14q-122 16 -214 73t-179 159q-11 14 -32 14q-30 0 -47 -58t-17 -99q0 -71 33 -133 q-15 -2 -24.5 -13t-9.5 -26q0 -128 93 -212q-14 -9 -14 -28q0 -7 1 -11q17 -58 57.5 -104t96.5 -69q-88 -49 -188 -49q-9 0 -27.5 1.5t-26.5 1.5q-15 0 -25.5 -11t-10.5 -26z" />
<glyph unicode="&#xf082;" d="M0 183v1097q0 136 96.5 232.5t232.5 96.5h1097q136 0 232.5 -96.5t96.5 -232.5v-1097q0 -136 -96.5 -232.5t-232.5 -96.5h-400q-2 0 -2 1v767h202q35 0 37 26l14 187q2 17 -10 29q-11 14 -27 14h-216v82q0 50 13 65t62 15q65 0 134 -15q15 -3 30 6q13 9 15 25l26 190 q2 14 -6.5 25.5t-22.5 15.5q-106 30 -225 30q-355 0 -355 -342v-97h-109q-15 0 -26 -12t-11 -28v-197q0 -9 6 -13.5t11 -5t20 -0.5h109v-767l11 -1h-377q-136 0 -232.5 96.5t-96.5 232.5z" />
<glyph unicode="&#xf083;" horiz-adv-x="2048" d="M0 0v1463q0 61 43 103.5t103 42.5h1756q61 0 103.5 -42.5t42.5 -103.5v-1463q0 -61 -43 -103.5t-103 -42.5h-1756q-61 0 -103.5 42.5t-42.5 103.5zM146 0h1756v146h-1756v-146zM146 1170h1756v135v158h-947l-73 -146h-736v-147zM293 1390h438v146h-438v-146zM585 656 q0 -182 128.5 -310.5t310.5 -128.5t310.5 128.5t128.5 310.5t-128.5 310.5t-310.5 128.5t-310.5 -128.5t-128.5 -310.5zM731 656q0 121 86 207t207 86t207 -86t86 -207t-86 -207t-207 -86t-207 86t-86 207zM841 658q0 -16 10.5 -26t26.5 -10t26 10t10 26q0 46 32 78t78 32 q16 0 26.5 10.5t10.5 26.5t-10.5 26t-26.5 10q-75 0 -129 -53.5t-54 -129.5z" />
<glyph unicode="&#xf084;" horiz-adv-x="2048" d="M0 859q0 183 108.5 358t283.5 283.5t358 108.5q186 0 303 -117t117 -303q0 -216 -149 -418l405 -405l110 109q-3 3 -29.5 28t-46 44.5t-37.5 41.5t-18 33q0 19 56 75t75 56q15 0 26 -11q7 -7 53 -51t94 -91t98.5 -98.5t83 -89t32.5 -46.5q0 -19 -56 -75.5t-75 -56.5 q-10 0 -32.5 18.5t-42 38t-44 45.5t-27.5 30l-110 -110l251 -251q32 -32 32 -78q0 -48 -44.5 -92.5t-92.5 -44.5q-46 0 -77 32l-767 767q-201 -150 -417 -150q-186 0 -303.5 117t-117.5 303zM219 877.5q0 -91.5 64 -155.5t155.5 -64t155.5 64t64 156q0 48 -21 95 q47 -22 94 -22q91 0 155.5 64t64.5 155.5t-64 155.5t-155.5 64t-155.5 -64t-64 -156q0 -48 22 -95q-47 22 -95 22q-91 0 -155.5 -64t-64.5 -155.5z" />
<glyph unicode="&#xf085;" horiz-adv-x="2194" d="M0 627v212q0 11 8 22t18 12l177 28q13 40 37 86q-39 55 -103 132q-8 13 -8 23q0 14 8 23q25 34 93.5 101.5t90.5 67.5q13 0 24 -8l132 -103q39 21 88 36q13 123 26 176q8 27 34 28h213q13 0 23 -8.5t11 -20.5l26 -175q39 -11 86 -35l135 102q9 8 23 8q13 0 24 -9 q165 -152 164 -183q0 -10 -8 -22q-14 -18 -48 -61.5t-51 -68.5q26 -55 39 -94l173 -26q11 -2 19.5 -12t8.5 -23v-211q0 -11 -8 -22t-18 -12l-178 -28q-13 -40 -36 -87q39 -55 103 -131q8 -11 8 -23q0 -14 -8 -22q-26 -34 -94.5 -102t-89.5 -68q-13 0 -24 8l-132 103 q-42 -22 -88 -35q-13 -123 -26 -178q-8 -27 -34 -27h-213q-13 0 -23 8.5t-11 20.5l-26 174q-39 11 -86 36l-135 -102q-8 -8 -23 -8q-13 0 -24 9q-165 152 -164 183q0 10 8 22q11 16 46.5 60.5t53.5 69.5q-26 50 -40 94l-174 27q-11 1 -19 11t-8 22zM439 731.5 q0 -121.5 85.5 -207t207 -85.5t207 85.5t85.5 207t-85.5 207t-207 85.5t-207 -85.5t-85.5 -207zM1317 66v160q0 18 170 36q15 33 34 59q-58 129 -58 158q0 5 4 8q5 2 40.5 22.5t67.5 39t34 18.5q9 0 52.5 -53t59.5 -77q23 2 34.5 2t34.5 -2q58 81 105 128l7 2q5 0 141 -80 q5 -3 5 -8q0 -29 -58 -158q19 -26 34 -59q170 -18 170 -36v-160q0 -18 -170 -35q-14 -31 -34 -60q58 -129 58 -157q0 -5 -5 -8q-139 -81 -141 -81q-9 0 -52.5 53.5t-59.5 77.5q-23 -2 -34.5 -2t-34.5 2q-16 -24 -59.5 -77.5t-52.5 -53.5q-2 0 -142 81q-5 3 -4 8q0 29 58 157 q-21 29 -34 60q-170 17 -170 35zM1317 1237v160q0 18 170 35q15 33 34 59q-58 129 -58 158q0 5 4 8q5 2 40.5 23t67.5 39t34 18q9 0 52.5 -53t59.5 -77q23 2 34.5 2t34.5 -2q58 81 105 128l7 2q5 0 141 -80q5 -3 5 -8q0 -29 -58 -158q19 -26 34 -59q170 -17 170 -35v-160 q0 -18 -170 -36q-14 -31 -34 -59q58 -129 58 -158q0 -5 -5 -8q-139 -81 -141 -81q-9 0 -52.5 53.5t-59.5 77.5q-23 -2 -34.5 -2t-34.5 2q-16 -24 -59.5 -77.5t-52.5 -53.5q-2 0 -142 81q-5 3 -4 8q0 29 58 158q-21 29 -34 59q-170 17 -170 36zM1609 146q0 -61 43 -103.5 t103.5 -42.5t103.5 42.5t43 103.5q0 59 -43.5 103t-103 44t-103 -43.5t-43.5 -103.5zM1609 1317q0 -61 43 -104t103.5 -43t103.5 43t43 104q0 59 -43.5 102.5t-103 43.5t-103 -43.5t-43.5 -102.5z" />
<glyph unicode="&#xf086;" horiz-adv-x="2048" d="M0 878q0 159 107.5 293.5t293 213t404 78.5t404 -78.5t293 -213t107.5 -293.5t-107.5 -294t-293 -213t-403.5 -78q-98 0 -202 18q-142 -101 -317 -146q-41 -10 -99 -19h-3q-13 0 -23.5 9.5t-13.5 23.5q-1 3 -1 7.5t0.5 8t2.5 7t3 5.5t4 6l4.5 6t5 6t4.5 5q6 7 26.5 28.5 t29.5 33.5t26 33t29 44t23 50q-142 82 -223 202.5t-81 256.5zM704 151q66 -5 101 -5q184 0 353 51.5t301 147.5q143 105 219.5 242.5t76.5 290.5q0 88 -26 173q147 -81 233 -203t86 -263q0 -137 -81 -256.5t-223 -201.5q11 -27 23 -50t29 -44.5t26 -33.5t29.5 -33.5 t26.5 -28.5q1 -1 4.5 -5t5 -5.5t4.5 -5.5t4 -6.5t3 -6t2.5 -7t0.5 -7.5t-1 -7q-3 -16 -15 -25t-25 -8q-57 8 -99 18q-176 46 -317 146q-103 -18 -202 -18q-310 0 -539 151z" />
<glyph unicode="&#xf087;" d="M0 146v732q0 61 43 103.5t103 42.5h313q41 27 157 177q66 86 122 146q27 29 40.5 98t35 144.5t71.5 123.5q45 42 102 42q96 0 173 -37t117 -116t40 -212q0 -106 -55 -220h201q119 0 205.5 -86.5t86.5 -204.5q0 -102 -56 -186q10 -38 11 -79q0 -88 -44 -165q3 -24 4 -49 q0 -115 -69 -203q1 -159 -97 -251t-259 -92h-42h-106q-110 0 -216.5 25.5t-247.5 74.5q-133 46 -158 46h-329q-61 0 -103.5 43t-42.5 103zM146 219.5q0 -29.5 22 -51.5t51.5 -22t51.5 22t22 51.5t-22 51.5t-51.5 22t-51.5 -22t-22 -51.5zM439 146h36q15 0 36.5 -3.5t38 -7.5 t43 -12.5t40 -13t41 -14t32.5 -12.5q241 -83 391 -83h138q219 0 220 191q0 30 -6 64q34 18 54 60t20 84t-20 79q61 57 60 136q0 29 -11 63.5t-29 53.5q37 1 61.5 54t24.5 93q0 58 -44.5 102t-101.5 44h-402q0 66 54.5 182t54.5 184q0 112 -36.5 165.5t-146.5 53.5 q-30 -30 -43.5 -97t-34.5 -143t-68 -126q-25 -26 -88 -104q-5 -6 -26.5 -34t-35.5 -46.5t-39.5 -49t-46 -50.5t-44 -40.5t-45.5 -30.5t-41 -10h-36v-732z" />
<glyph unicode="&#xf088;" d="M0 585v732q0 61 43 103.5t103 42.5h329q25 0 158 46q146 50 255 75t229 25h128q160 0 258.5 -90t97.5 -247v-6q69 -88 69 -203q0 -25 -4 -49q43 -77 44 -165q0 -41 -11 -79q56 -84 56 -186q0 -118 -86.5 -204.5t-205.5 -86.5h-201q55 -113 55 -220q0 -135 -40 -212 q-40 -79 -117 -116.5t-173 -37.5q-58 0 -102 43q-39 38 -62 93.5t-29.5 103t-20 97t-35.5 73.5q-55 57 -122 145q-115 150 -157 177h-313q-61 0 -103.5 43t-42.5 103zM146 1243.5q0 -29.5 22 -51.5t51.5 -22t51.5 22t22 51.5t-22 51.5t-51.5 22t-51.5 -22t-22 -51.5z M439 585h36q18 0 40.5 -10t46 -31t44 -41t46 -50t39.5 -48.5t36 -47t26 -34.5q63 -78 88 -104q47 -49 68 -125t35 -143.5t43 -96.5q110 0 146.5 53.5t36.5 165.5q0 67 -54.5 183.5t-54.5 182.5h402q57 0 101.5 44t44.5 102q0 40 -24.5 92.5t-61.5 53.5q17 19 28.5 54.5 t11.5 63.5q0 79 -60 136q21 37 20.5 79t-20.5 84t-54 60q6 34 6 64q0 97 -56 144t-156 47h-146q-150 0 -391 -84q-6 -2 -33 -11.5t-40.5 -14t-40 -13.5t-43 -13t-38 -7t-36.5 -3h-36v-732z" />
<glyph unicode="&#xf089;" horiz-adv-x="1024" d="M0 1016q0 42 64 53l574 83l257 520q22 47 56 47v-1530l-513 -270q-25 -14 -46 -14q-24 0 -36 16.5t-12 40.5q0 7 2 23l99 572l-416 404q-29 31 -29 55z" />
<glyph unicode="&#xf08a;" horiz-adv-x="2048" d="M0 1074q0 251 145 393t401 142q71 0 145 -24.5t137 -66t109 -78.5t87 -78q41 41 87 78t109 78.5t137 66t145 24.5q256 0 401 -142t145 -393q0 -253 -262 -514l-712 -686q-21 -21 -50.5 -20.5t-49.5 20.5l-713 688q-11 9 -31.5 30t-64 75t-77.5 111t-61 138.5t-27 157.5z M146 1074q0 -192 214 -405l664 -640l663 638q215 215 215 407q0 93 -24.5 164t-63 112.5t-93.5 68t-107.5 35.5t-112 9t-128 -29t-126 -73t-99 -82.5t-68.5 -70.5q-21 -25 -56 -25t-56 25q-27 32 -68.5 70.5t-99 82.5t-126 73t-128 29t-112 -9t-107.5 -35.5t-93.5 -68 t-63 -112.5t-24.5 -164z" />
<glyph unicode="&#xf08b;" horiz-adv-x="1901" d="M0 329v805q0 136 96.5 232.5t232.5 96.5h366q15 0 25.5 -11t10.5 -26q0 -5 1.5 -23t1 -30t-3.5 -27t-11.5 -22t-23.5 -7h-366q-75 0 -129 -54t-54 -129v-805q0 -75 54 -129t129 -54h329h12.5h15t13.5 -1t13 -3.5t9 -6.5t8 -10t2 -15q0 -5 1.5 -23t1 -30t-3.5 -27 t-11.5 -22.5t-23.5 -7.5h-366q-136 0 -232.5 96.5t-96.5 232.5zM439 512v439q0 30 21.5 51.5t51.5 21.5h512v329q0 30 21.5 51.5t51.5 21.5t52 -21l621 -622q22 -22 22 -51.5t-22 -51.5l-621 -622q-22 -22 -52 -21.5t-51.5 22t-21.5 51.5v329h-512q-30 0 -51.5 21.5 t-21.5 51.5z" />
<glyph unicode="&#xf08c;" d="M0 183v1097q0 136 96.5 232.5t232.5 96.5h1097q136 0 232.5 -96.5t96.5 -232.5v-1097q0 -136 -96.5 -232.5t-232.5 -96.5h-1097q-136 0 -232.5 96.5t-96.5 232.5zM293 183q0 -15 10.5 -26t25.5 -11h220q15 0 25.5 11t10.5 26v731q0 15 -11 26t-25 11h-220 q-15 0 -25.5 -11t-10.5 -26v-731zM293 1175q0 -58 41 -100t99 -42q59 0 100.5 42t41.5 100t-41 100t-101 42q-58 0 -99 -42t-41 -100zM658 183q0 -15 18 -26t34 -11h208q14 0 23.5 11t9.5 26v399q0 160 130 160q56 0 72.5 -26t16.5 -84v-449q0 -15 14 -26t30 -11h212 q15 0 26 11t11 26v497q0 145 -84 220t-232 75q-103 0 -180 -52q-14 -9 -16 -13q0 41 -40 41h-201q-16 0 -34 -8.5t-18 -23.5v-736z" />
<glyph unicode="&#xf08d;" horiz-adv-x="1316" d="M0 366q0 141 89.5 253t203.5 112v586q-59 0 -103 43t-44 102.5t43.5 103t103.5 43.5h731q59 0 102.5 -43.5t43.5 -103t-43.5 -102.5t-102.5 -43v-586q113 0 203 -112t90 -253q0 -30 -22 -51.5t-52 -21.5h-490l-58 -552q-2 -14 -12 -24t-24 -10h-1q-31 0 -36 31l-87 555 h-462q-30 0 -51.5 21.5t-21.5 51.5zM475 768q0 -16 10.5 -26.5t26.5 -10.5t26.5 10.5t10.5 26.5v512q0 16 -10.5 26.5t-26.5 10.5t-26.5 -10.5t-10.5 -26.5v-512z" />
<glyph unicode="&#xf08e;" horiz-adv-x="2048" d="M0 329v951q0 136 96.5 232.5t232.5 96.5h805q16 0 26 -10t10 -26v-74q0 -16 -10 -26t-26 -10h-805q-75 0 -129 -54t-54 -129v-951q0 -75 54 -129t129 -54h951q75 0 129 54t54 129v366q0 16 10 26t26 10h74q16 0 26 -10t10 -26v-366q0 -136 -96.5 -232.5t-232.5 -96.5 h-951q-136 0 -232.5 96.5t-96.5 232.5zM783 658q0 15 11 27l745 745l-201 201q-22 22 -21.5 51.5t22 51t51.5 21.5h585q30 0 51.5 -21.5t21.5 -51.5v-585q0 -30 -21.5 -51.5t-51.5 -21.5t-52 22l-201 201l-745 -745q-11 -11 -26 -11.5t-26 11.5l-131 130q-11 11 -11 26z" />
<glyph unicode="&#xf090;" d="M0 512v439q0 30 21.5 51.5t51.5 21.5h512v329q0 30 22 51.5t51.5 21.5t51.5 -21l621 -622q22 -22 22 -51.5t-22 -51.5l-621 -622q-22 -22 -51.5 -21.5t-51.5 22t-22 51.5v329h-512q-30 0 -51.5 21.5t-21.5 51.5zM1022.5 90q0.5 12 3.5 26.5t11.5 22t23.5 7.5h365 q75 0 129 54t54 129v805q0 75 -53.5 129t-129.5 54h-329h-12.5h-15t-13 1t-13 3t-9 6t-8 10.5t-2.5 15.5q0 5 -1 23t-0.5 30t3.5 27t11.5 22.5t23.5 7.5h365q136 0 232.5 -96.5t96.5 -232.5v-805q0 -136 -96.5 -232.5t-232.5 -96.5h-365q-15 0 -26 11t-11 26q0 5 -1 23 t-0.5 30z" />
<glyph unicode="&#xf091;" horiz-adv-x="1901" d="M0 1061v146q0 46 32 78t78 32h329v109q0 75 53.5 129t129.5 54h658q75 0 129 -53.5t54 -129.5v-109h329q46 0 78 -32t32 -78v-146q0 -81 -47.5 -163.5t-128 -149t-198 -111.5t-246.5 -51q-48 -62 -108 -108q-43 -39 -60 -83t-17 -102q0 -62 35 -104.5t111 -42.5 q86 0 153 -52t67 -131v-73q0 -16 -10.5 -26t-26.5 -10h-951q-16 0 -26 10t-10 26v73q0 79 67 131t152 52q77 0 112 42.5t35 104.5q0 58 -17 102t-60 83q-61 47 -109 108q-129 6 -246 51t-197.5 111.5t-128 148.5t-47.5 164zM146 1061q0 -89 108 -185.5t269 -129.5 q-85 185 -84 424h-293v-109zM1378 746q161 33 269 129.5t108 185.5v109h-292q0 -239 -85 -424z" />
<glyph unicode="&#xf092;" d="M0 183v1097q0 136 96.5 232.5t232.5 96.5h1097q136 0 232.5 -96.5t96.5 -232.5v-1097q0 -136 -96.5 -232.5t-232.5 -96.5h-1097q-136 0 -232.5 96.5t-96.5 232.5zM293 249q0 -69 41 -112t96 -58t122 -15q256 0 256 214q0 55 -29 89t-71.5 48.5t-84.5 24.5t-71.5 26.5 t-29.5 45.5q0 50 56 59q88 17 139.5 80t51.5 154q0 27 -11 59q34 8 56 15v143q-89 -33 -155 -33q-57 33 -125 33q-98 0 -165.5 -65.5t-67.5 -163.5q0 -57 33.5 -116.5t83.5 -76.5v-3q-43 -19 -43 -98q0 -59 47 -88v-3q-129 -42 -129 -159zM437 257q0 73 112 73 q116 1 116 -69q0 -75 -106 -76q-122 0 -122 72zM451 792q0 103 88 103q41 0 63 -30t22 -72q0 -97 -85 -97q-88 0 -88 96zM863 1225q0 -41 28.5 -71.5t68.5 -30.5t68 31t28 71q0 41 -27.5 72.5t-68.5 31.5t-69 -31t-28 -73zM881 400h157q-2 23 -3 103v425q0 67 3 87h-157 q3 -30 4 -90v-431q-1 -63 -4 -94zM1104 881q41 3 42 4q5 0 13.5 -1t13.5 -1v-2h-3v-248q0 -42 3 -73t13.5 -64.5t28 -55.5t49.5 -35.5t75 -13.5q74 0 124 27v139q-34 -24 -78 -24q-61 0 -60 93v257h59q10 0 30 -1t31 -1v134h-120q0 94 3 116h-160q5 -27 5 -62v-54h-69v-134z " />
<glyph unicode="&#xf093;" horiz-adv-x="1901" d="M0 -110v659q0 15 11 25.5t26 10.5h219q15 0 26 -11t11 -25v-403h1316v403q0 15 11 25.5t26 10.5h219q15 0 26 -10.5t11 -25.5v-659q0 -15 -11 -25.5t-26 -10.5h-1828q-15 0 -26 10.5t-11 25.5zM366 951q0 30 21 51l512 512q22 22 52 22t51 -22l512 -512q22 -21 22 -51 t-21.5 -51.5t-51.5 -21.5h-293v-512q0 -30 -21.5 -51.5t-51.5 -21.5h-292q-30 0 -52 21.5t-22 51.5v512h-292q-30 0 -51.5 21.5t-21.5 51.5z" />
<glyph unicode="&#xf094;" d="M0 495q0 127 20.5 248.5t62.5 239.5t115 222t171 178q89 67 265 137q222 89 361 89q69 0 201 -27.5t198 -27.5q22 0 65.5 6t66.5 6q93 0 135 -58t42 -154q0 -26 -6 -77.5t-6 -77.5q0 -11 1.5 -21t3.5 -19.5t4.5 -15.5t7.5 -18.5t7 -19.5q18 -46 28.5 -135.5t10.5 -155.5 q0 -189 -80 -374.5t-224 -329t-321 -206.5q-142 -50 -372 -50q-65 0 -194.5 16.5t-193.5 16.5q-27 0 -82.5 -16.5t-84.5 -16.5q-83 0 -141 63.5t-58 146.5q0 27 13 77.5t13 76.5q0 46 -14.5 138t-14.5 139zM146 496q0 -46 14.5 -137.5t14.5 -137.5q0 -26 -12.5 -76 t-12.5 -75t13.5 -42t38.5 -17q27 0 83 13t84 13q65 0 193.5 -18t194.5 -18q207 0 324 41q147 51 269 174t190 280.5t68 314.5q0 50 -8 130t-21 110q-14 34 -19.5 50.5t-10 42t-4.5 55.5q0 26 6 78t6 77q0 42 -12 63q-5 1 -15 1q-22 0 -66.5 -5t-66.5 -5q-69 0 -201.5 27.5 t-200.5 27.5q-49 0 -107.5 -13t-97 -27t-102.5 -39q-157 -62 -231 -118q-110 -83 -182.5 -216t-100.5 -270t-28 -284z" />
<glyph unicode="&#xf095;" horiz-adv-x="1609" d="M0 1222q0 105 58 212q64 115 121 140q29 13 78.5 24t80.5 11q16 0 24 -3q21 -7 61 -87q13 -22 34.5 -62t39.5 -72.5t36 -61.5q3 -5 19.5 -28.5t24.5 -40t8 -32.5q0 -23 -32.5 -57.5t-71 -63t-71 -60.5t-32.5 -52q0 -10 6 -26t10 -24t16 -27t13 -22q87 -157 199 -268.5 t268 -198.5q2 -1 21.5 -13t27.5 -16t23.5 -10t26.5 -6q21 0 52.5 32.5t60 71t63 71t57.5 32.5q16 0 32.5 -8t40.5 -24.5t28 -19.5q29 -17 61.5 -35.5t72.5 -40.5t62 -34q80 -40 87 -61q3 -8 3 -24q0 -31 -11.5 -80.5t-23.5 -78.5q-24 -57 -140 -121q-107 -58 -212 -58 q-31 0 -60 4t-66 14.5t-54.5 16.5t-63 23t-56.5 21q-112 40 -200 95q-146 90 -302 246t-246 302q-55 88 -95 200q-3 10 -20.5 56t-23.5 63.5t-16.5 54.5t-14.5 66t-4 60z" />
<glyph unicode="&#xf096;" horiz-adv-x="1901" d="M0 329v951q0 136 96.5 232.5t232.5 96.5h951q136 0 232.5 -96.5t96.5 -232.5v-951q0 -136 -96.5 -232.5t-232.5 -96.5h-951q-136 0 -232.5 96.5t-96.5 232.5zM146 329q0 -75 54 -129t129 -54h951q75 0 129 54t54 129v951q0 75 -54 129t-129 54h-951q-75 0 -129 -54 t-54 -129v-951z" />
<glyph unicode="&#xf097;" horiz-adv-x="1462" d="M0 8v1473q0 39 22.5 71t59.5 47q24 10 51 10h1197q26 0 51 -10q38 -15 60 -47t22 -71v-1473q0 -39 -22.5 -71t-59.5 -47q-22 -9 -51 -9q-55 0 -95 37l-504 484l-504 -484q-41 -38 -94 -38q-26 0 -51 10q-38 15 -60 47t-22 71zM146 43l484 464l101 98l102 -98l484 -464 v1420h-1171v-1420z" />
<glyph unicode="&#xf098;" d="M0 183v1097q0 136 96.5 232.5t232.5 96.5h1097q136 0 232.5 -96.5t96.5 -232.5v-1097q0 -136 -96.5 -232.5t-232.5 -96.5h-1097q-136 0 -232.5 96.5t-96.5 232.5zM293 1034q0 -18 2.5 -38.5t5.5 -35t10.5 -38t11.5 -33.5t14 -37.5t13 -34.5q69 -187 247.5 -366 t365.5 -248q7 -2 34.5 -12t38 -14t34 -11.5t37.5 -10.5t34.5 -6t39.5 -3q65 0 149 39t108 92q25 60 25 115q0 13 -2 18q-3 9 -44 34t-102 57l-60 33q-6 3 -22 14.5t-28.5 17t-23.5 5.5q-21 0 -54 -37t-65 -74.5t-51 -37.5q-8 0 -18.5 4t-17.5 7.5t-19.5 10.5t-16.5 10 q-113 63 -194.5 144.5t-144.5 194.5q-2 3 -9.5 16t-11 19.5t-7.5 17.5t-4 19q0 15 23.5 38.5t51.5 44t51.5 45t23.5 41.5q0 11 -6 24t-17.5 29t-14.5 22q-3 7 -17 32.5t-29 51.5t-30 54t-28.5 46.5t-19 21t-18.5 2.5q-55 0 -115 -26q-53 -24 -91.5 -108t-38.5 -149z" />
<glyph unicode="&#xf099;" horiz-adv-x="2194" d="M0 81q0 15 11 26t26 11q16 0 50 -3t51 -3q233 0 429 121q-118 27 -207 109.5t-127 198.5q-2 9 -2 12q0 14 10 25t25 11q6 0 16.5 -2.5t13.5 -2.5q-102 63 -162.5 168t-60.5 224q0 17 13 29t32 12q11 0 39.5 -13t34.5 -15q-105 126 -105 292q0 58 16.5 123.5t46.5 108.5 q11 18 28 18q18 0 31 -13q87 -96 126 -132q141 -127 315.5 -203t362.5 -92q-5 24 -5 56q0 191 135.5 326.5t326.5 135.5q186 0 322 -130q109 23 239 94q9 6 18 5q15 0 26 -10.5t11 -25.5q0 -27 -32 -83.5t-59 -87.5q8 2 34.5 12t49.5 18.5t27 8.5q15 0 26 -10.5t11 -25.5 q0 -11 -6 -21q-73 -119 -204 -217v-38q5 -259 -115 -522q-153 -339 -454 -530.5t-676 -191.5q-303 0 -571 139q-73 38 -100 57q-17 14 -17 31z" />
<glyph unicode="&#xf09a;" horiz-adv-x="877" d="M0 819v229q0 18 12.5 30.5t30.5 12.5h140v118q0 202 100.5 301t305.5 99q137 0 257 -34q16 -5 25 -18.5t7 -29.5l-31 -223q-2 -18 -18 -30q-16 -10 -35 -7q-87 19 -154 19q-56 0 -71 -18t-15 -76v-101h248q18 0 31 -13q13 -15 12 -33l-16 -229q-2 -17 -14.5 -29 t-29.5 -12h-231v-878q0 -18 -12.5 -30.5t-29.5 -12.5h-286q-18 0 -30.5 12.5t-12.5 30.5v878h-140q-18 0 -30.5 13t-12.5 31z" />
<glyph unicode="&#xf09b;" d="M0 731.5q0 238.5 117.5 440.5t319.5 319.5t441 117.5t440.5 -117.5t319 -319.5t117.5 -440.5t-117.5 -440.5t-319 -319.5t-440.5 -117.5t-441 117.5t-319.5 319.5t-117.5 440.5zM146 731q0 -239 142.5 -432.5t369.5 -264.5v193q-62 -8 -79 -8q-126 0 -174 115 q-17 43 -42 72q-6 7 -24 21.5t-32 27t-14 18.5q0 14 32 14q33 0 58.5 -16.5t43.5 -40t36 -47.5t46 -40.5t65 -16.5q48 0 92 16q18 65 72 101q-190 18 -281 95.5t-91 256.5q0 135 83 227q-16 48 -16 96q0 66 31 124q65 0 115.5 -22t115.5 -69q87 21 193 20q91 0 175 -18 q65 46 114.5 67.5t113.5 21.5q31 -58 31 -124q0 -49 -16 -95q83 -94 84 -228q0 -179 -91.5 -257.5t-280.5 -95.5q79 -54 79 -149v-259q227 71 369.5 264.5t142.5 432.5q0 149 -58 284.5t-156 233t-233.5 156t-284 58.5t-284 -58.5t-233 -156t-156 -233t-58.5 -284.5z" />
<glyph unicode="&#xf09c;" horiz-adv-x="1901" d="M0 110v658q0 46 32 78t78 32h768v219q0 211 150 361.5t361.5 150.5t362 -150.5t150.5 -361.5v-292q0 -30 -22 -52t-51 -22h-74q-30 0 -51.5 22t-21.5 52v292q0 121 -85.5 207t-206.5 86t-207 -86t-86 -207v-219h110q46 0 78 -32t32 -78v-658q0 -46 -32 -78t-78 -32h-1097 q-46 0 -78 32t-32 78zM512 183q0 -15 11 -26t26 -11h219q15 0 26 11t11 26q0 7 -17.5 65t-40 132t-22.5 75q37 18 58.5 53.5t21.5 76.5q0 61 -43 103.5t-103.5 42.5t-103.5 -42.5t-43 -103.5q0 -41 21.5 -76t58.5 -54q0 -2 -23 -75.5t-40 -131.5t-17 -65z" />
<glyph unicode="&#xf09d;" horiz-adv-x="2194" d="M0 37v1389q0 75 53.5 129t129.5 54h1828q75 0 129 -53.5t54 -129.5v-1389q0 -75 -53.5 -129t-129.5 -54h-1828q-75 0 -129 53.5t-54 129.5zM146 37q0 -15 11 -26t26 -11h1828q15 0 26 11t11 26v694h-1902v-694zM146 1170h1902v256q0 15 -11 26t-26 11h-1828 q-15 0 -26 -11t-11 -26v-256zM293 146v147h292v-147h-292zM731 146v147h439v-147h-439z" />
<glyph unicode="&#xf09e;" horiz-adv-x="1609" d="M0 219.5q0 91.5 64 155.5t155.5 64t155.5 -64t64 -155.5t-64 -155.5t-155.5 -64t-155.5 64t-64 155.5zM0 797v154q0 33 24 54q19 19 49 19h6q183 -15 349.5 -92t296.5 -207q130 -129 207 -296t92 -350q2 -32 -19 -55q-21 -24 -54 -24h-154q-29 0 -49.5 19t-22.5 47 q-25 262 -211 447.5t-448 211.5q-29 2 -47.5 22.5t-18.5 49.5zM0 1373v163q0 32 23 53q21 21 50 20h4q299 -15 572.5 -137t486.5 -336q214 -213 336 -486.5t137 -572.5q2 -31 -20 -54q-21 -23 -53 -23h-163q-30 0 -51 20t-23 49q-14 246 -115.5 467t-264 383.5t-384 264.5 t-466.5 117q-29 1 -49 22t-20 50z" />
<glyph unicode="&#xf0a0;" d="M0 183v366q0 29 18 85l225 693q19 61 72 98.5t116 37.5h894q63 0 115.5 -38t71.5 -98l225 -693q18 -56 18 -85v-366q0 -75 -53.5 -129t-128.5 -54h-1390q-75 0 -129 53.5t-54 129.5zM146 183q0 -15 11 -26t26 -11h1390q15 0 25.5 11t10.5 26v366q0 15 -11 25.5t-25 10.5 h-1390q-15 0 -26 -11t-11 -25v-366zM203 731h1349l-179 551q-5 15 -18.5 25t-29.5 10h-894q-16 0 -30 -10t-18 -25zM1006 365.5q0 37.5 26.5 64.5t64.5 27t65 -27t27 -64.5t-27 -64.5t-65 -27t-64.5 27t-26.5 64.5zM1298 365.5q0 37.5 27 64.5t64.5 27t64.5 -27t27 -64.5 t-27 -64.5t-64.5 -27t-64.5 27t-27 64.5z" />
<glyph unicode="&#xf0a1;" horiz-adv-x="2048" d="M0 768v219q0 75 53.5 129t129.5 54h548q497 0 1024 439q59 0 103 -43.5t44 -102.5v-439q61 0 103.5 -43t42.5 -103.5t-43 -103.5t-103 -43v-438q0 -59 -43.5 -103t-103.5 -44q-477 397 -928 435q-66 -22 -103.5 -76t-35.5 -115t46 -105q-23 -38 -26.5 -75t7 -66.5 t38.5 -63t54.5 -57t70.5 -57.5q-33 -66 -127.5 -95t-193 -13.5t-150.5 63.5q-8 26 -34 100t-36.5 108t-26 101.5t-17.5 115.5t4 112.5t25 126.5h-139q-75 0 -129 54t-54 129zM878 723q430 -47 877 -389v1090q-450 -345 -877 -392v-309z" />
<glyph unicode="&#xf0a2;" horiz-adv-x="1901" d="M0 146q217 184 328 454.5t111 569.5q0 189 109.5 300t301.5 133q-9 21 -9 43q0 46 32 77.5t78 31.5t78 -32t32 -77q0 -22 -10 -43q192 -23 302 -133.5t110 -299.5q0 -299 111 -569.5t328 -454.5q0 -59 -43.5 -102.5t-103.5 -43.5h-512q0 -121 -85.5 -207t-206.5 -86 t-207 86t-86 207h-512q-59 0 -102.5 43.5t-43.5 102.5zM209 146h1484q-187 207 -281.5 470.5t-94.5 553.5q0 293 -366 293t-366 -293q0 -290 -94.5 -553.5t-281.5 -470.5zM750 0q0 -83 58.5 -142t142.5 -59q18 0 18 18t-18 18q-67 0 -116 49t-49 116q0 18 -18 18t-18 -18z " />
<glyph unicode="&#xf0a3;" d="M2 497q-11 48 23 80l158 154l-158 155q-34 32 -23 80q14 47 60 58l215 55l-61 212q-14 47 22 80q33 35 80 22l212 -60l55 214q11 47 58 59q47 14 80 -22l155 -159l154 159q33 34 80 22q47 -11 58 -59l55 -214l213 60q47 14 80 -22q35 -33 21 -80l-60 -212l215 -55 q46 -11 59 -58q11 -48 -23 -80l-157 -155l157 -154q34 -32 23 -80q-14 -47 -59 -58l-215 -55l60 -213q14 -47 -21 -80q-33 -35 -80 -21l-213 60l-55 -215q-11 -46 -58 -59q-14 -2 -22 -2q-35 0 -58 25l-154 158l-155 -158q-32 -34 -80 -23q-47 13 -58 59l-55 215l-212 -60 q-47 -14 -80 21q-35 33 -22 80l61 213l-215 55q-46 11 -60 58z" />
<glyph unicode="&#xf0a4;" horiz-adv-x="2048" d="M0 146v732q0 61 43 103.5t103 42.5h329q11 0 24.5 5t27.5 16t26 20.5t27 25.5t23 25t22 25t16 19q74 85 114 147q15 24 38 71t42.5 82.5t46.5 72t63 56.5t79 20q143 0 236 -76.5t93 -215.5q0 -78 -25 -147h427q119 0 206 -86.5t87 -204.5q0 -120 -86.5 -207t-206.5 -87 h-193q-5 -71 -42 -136q3 -24 3 -49q0 -115 -68 -203q1 -159 -97.5 -251t-259.5 -92q-152 0 -368 79q-187 67 -255 67h-329q-61 0 -103.5 43t-42.5 103zM146 219.5q0 -29.5 22 -51.5t51.5 -22t51.5 22t22 51.5t-22 51.5t-51.5 22t-51.5 -22t-22 -51.5zM439 146h36 q82 0 191 -36.5t221.5 -73t205.5 -36.5q216 0 216 191q0 30 -6 64q34 18 54 60t20 84t-20 79q61 57 60 136q0 29 -11.5 63.5t-28.5 53.5h378q59 0 103 44t44 103q0 58 -44.5 102t-102.5 44h-658q0 23 17 55.5t38 63t38 77.5t17 97q0 77 -51 111.5t-132 34.5q-27 0 -103 -159 q-27 -50 -42 -74q-46 -73 -128 -166q-81 -93 -116 -121q-79 -65 -160 -65h-36v-732z" />
<glyph unicode="&#xf0a5;" horiz-adv-x="2048" d="M0 879q0 118 87 204.5t206 86.5h427q-25 69 -25 147q0 139 93 215.5t236 76.5q43 0 79 -20t63 -56.5t46.5 -72t42.5 -82.5t38 -71q40 -63 114 -147q2 -3 16 -19t22 -25t23 -25t27 -25.5t26 -20.5t27 -16t25 -5h329q61 0 103.5 -42.5t42.5 -103.5v-732q0 -61 -43 -103.5 t-103 -42.5h-329q-67 0 -255 -67q-217 -79 -363 -79q-162 0 -262.5 88.5t-99.5 248.5l1 6q-70 87 -69 203q0 25 3 49q-38 65 -42 136h-193q-120 0 -206.5 87t-86.5 207zM146 878q0 -59 43.5 -103t103.5 -44h378q-17 -19 -28.5 -54t-11.5 -63q0 -79 60 -136 q-21 -37 -20.5 -79t20.5 -84t54 -60q-5 -27 -4 -64q0 -97 55 -144t155 -47q96 0 209 36.5t222 73t191 36.5h36v732h-36q-40 0 -77 13t-73.5 44t-54.5 50.5t-57 62.5q-2 3 -4 5t-5 5.5t-5 5.5q-82 93 -128 166q-16 25 -43 77q-1 3 -12 25.5t-21.5 41.5t-23 41t-24.5 35 t-21 13q-81 0 -132 -35t-51 -111q0 -49 17 -96.5t38 -78t38 -63t17 -55.5h-658q-57 0 -102 -44t-45 -102zM1755 219.5q0 -29.5 22 -51.5t51.5 -22t51.5 22t22 51.5t-22 51.5t-51.5 22t-51.5 -22t-22 -51.5z" />
<glyph unicode="&#xf0a6;" d="M0 731q0 143 76.5 236.5t216.5 93.5q78 0 146 -26v428q0 119 87 205.5t204 86.5q120 0 207 -86t87 -206v-193q71 -5 136 -43q24 3 49 4q115 0 204 -69q159 1 250.5 -97t91.5 -259q0 -152 -78 -368q-67 -187 -68 -255v-329q0 -61 -43 -104t-103 -43h-732q-61 0 -103.5 43 t-42.5 104v329q0 11 -5 24.5t-16 27t-20.5 25.5t-25.5 27.5t-24.5 23.5t-24.5 21.5t-20 16.5q-85 74 -147 114q-24 15 -71 37.5t-82.5 42t-72 46.5t-56.5 63t-20 79zM146 731q0 -27 159 -102q50 -27 74 -43q73 -46 166 -128q93 -81 121 -115q65 -79 65 -160v-37h732v37 q0 82 36.5 190.5t73 221t36.5 205.5q0 216 -191 216q-30 0 -64 -6q-18 34 -59.5 54.5t-84 20.5t-79.5 -21q-57 61 -136 61q-29 0 -63.5 -11.5t-53.5 -28.5v378q0 59 -43.5 102.5t-103.5 43.5q-58 0 -102 -44.5t-44 -101.5v-658q-23 0 -55.5 17t-62.5 37.5t-77.5 37.5 t-96.5 17q-77 0 -112 -50.5t-35 -132.5zM1317 -73q0 -30 21.5 -51.5t51 -21.5t51.5 21.5t22 51.5t-22 51.5t-51.5 21.5t-51 -21.5t-21.5 -51.5z" />
<glyph unicode="&#xf0a7;" d="M0 731q0 43 20 79.5t56.5 63.5t72 46t82.5 42t71 38q63 40 147 114q3 2 19.5 16t25 22t24.5 23.5t25.5 27.5t20.5 25.5t16 27t5 24.5v329q0 61 43 103.5t103 42.5h732q61 0 103.5 -42.5t42.5 -103.5v-329q0 -67 68 -255q78 -217 78 -362q0 -162 -88.5 -263t-248.5 -99 l-5 1q-87 -70 -204 -70q-25 0 -49 3q-62 -34 -136 -42v-193q0 -120 -87 -206.5t-207 -86.5q-118 0 -204.5 87t-86.5 206v427q-62 -25 -146 -25q-138 0 -215.5 93.5t-77.5 235.5zM146 731q0 -81 35 -131.5t112 -50.5q49 0 96.5 17t77.5 37.5t62.5 37.5t55.5 17v-658 q0 -57 44 -101.5t102 -44.5q59 0 103 43.5t44 102.5v378q53 -40 117 -40q79 0 136 61q37 -21 79.5 -21t84 20t59.5 55q27 -5 64 -5q97 0 144 55.5t47 154.5q0 96 -36.5 209.5t-73 222t-36.5 190.5v37h-732v-37q0 -53 -28.5 -104t-59 -82t-82.5 -76q-10 -9 -16 -13 q-93 -82 -166 -128q-25 -16 -77 -44q-3 -1 -25.5 -12t-41.5 -21t-40.5 -22.5t-35 -24.5t-13.5 -22zM1317 1536q0 -30 21.5 -51.5t51 -21.5t51.5 21.5t22 51.5t-22 51.5t-51.5 21.5t-51 -21.5t-21.5 -51.5z" />
<glyph unicode="&#xf0a8;" d="M0 731.5q0 238.5 117.5 440.5t319.5 319.5t441 117.5t440.5 -117.5t319 -319.5t117.5 -440.5t-117.5 -440.5t-319 -319.5t-440.5 -117.5t-441 117.5t-319.5 319.5t-117.5 440.5zM286.5 731.5q0.5 -30.5 20.5 -51.5l104 -104l414 -414q21 -21 51.5 -20.5t51.5 20.5 l104 104q21 21 21 52t-21 51l-216 216h574q30 0 51.5 21.5t21.5 51.5v147q0 30 -22 51.5t-51 21.5h-574l216 216q22 22 22 51.5t-22 51.5l-104 104q-21 21 -51.5 20.5t-51.5 -20.5l-414 -414l-104 -104q-21 -21 -20.5 -51.5z" />
<glyph unicode="&#xf0a9;" d="M0 731.5q0 238.5 117.5 440.5t319.5 319.5t441 117.5t440.5 -117.5t319 -319.5t117.5 -440.5t-117.5 -440.5t-319 -319.5t-440.5 -117.5t-441 117.5t-319.5 319.5t-117.5 440.5zM293 658q0 -30 21.5 -51.5t51.5 -21.5h573l-216 -216q-22 -22 -21.5 -51.5t21.5 -51.5 l104 -104q21 -21 52 -20.5t51 20.5l414 414l104 104q21 21 21 51.5t-21 51.5l-104 104l-414 414q-21 21 -51.5 20.5t-51.5 -20.5l-104 -104q-21 -21 -20.5 -52t20.5 -51l216 -216h-573q-30 0 -51.5 -22t-21.5 -51v-147z" />
<glyph unicode="&#xf0aa;" d="M0 731.5q0 238.5 117.5 440.5t319.5 319.5t441 117.5t440.5 -117.5t319 -319.5t117.5 -440.5t-117.5 -440.5t-319 -319.5t-440.5 -117.5t-441 117.5t-319.5 319.5t-117.5 440.5zM288 732.5q0 -30.5 21 -51.5l104 -104q21 -21 51.5 -20.5t50.5 20.5l216 216v-574 q0 -30 22 -51.5t52 -21.5h146q30 0 51.5 22t21.5 51v574l216 -216q22 -22 51.5 -22t51.5 22l104 104q20 21 20 51.5t-20 51.5l-414 414l-104 104q-21 21 -51.5 20.5t-51.5 -20.5l-104 -104l-413 -414q-21 -21 -21 -51.5z" />
<glyph unicode="&#xf0ab;" d="M0 731.5q0 238.5 117.5 440.5t319.5 319.5t441 117.5t440.5 -117.5t319 -319.5t117.5 -440.5t-117.5 -440.5t-319 -319.5t-440.5 -117.5t-441 117.5t-319.5 319.5t-117.5 440.5zM288 730q0 -31 21 -51l413 -414l104 -104q21 -21 52 -20.5t51 20.5l104 104l414 414 q20 20 20 51t-20 52l-104 104q-21 21 -51.5 20.5t-51.5 -20.5l-216 -216v573q0 30 -21.5 52t-51.5 22h-146q-30 0 -52 -22t-22 -52v-573l-216 216q-22 22 -51.5 21.5t-50.5 -21.5l-104 -104q-21 -21 -21 -52z" />
</font>
</defs>
</svg>
